Ссылка на приватное зеркало всего за 1$. Внимание количество ограничено!!!

OK

1+1

iTunes

мы

OK

1

WEB-DLRip

Джокер

Пифагор

Ведьмак / The Witcher сериал

iTunes

ПШазам

ОК

Оно 2

iTunes

30
pack

Вам бонус

ВАЖНО

!!Акция!!

Alien_RageХит недели

RePack

Resident Evil 21

ИГРА 18+

pack

RePack

jed

RePack

fifa19

RePack

Assassins Creed: Odyssey

RePack

NEED FOR SPEED™ PAYBACK

4 сезон

9 сезон

Бесстыжие 9 сезон

Все сериалы

все сериалы на PB.wtf

RePack

FAR CRY 5
  

Болотная икра / Bayou Caviar (Кьюба Гудинг мл.) [2018, Драма, WEB-DL 1080p] DUB [Line] pb.wtf

Болотная икра через торрент pb.wtf

Размер: 4.59 GB | Добавлен: 1 год 2 мес. назад | Торрент скачан:36 раз
Скачать  

17-11-2018 19:58 Болотная икра Скачать торрент  

Болотная икра / Bayou CaviarГод выпуска: 2018
Страна: США
Жанр: Драма
Продолжительность: 01:53:47
Перевод: Дублированный | Line
Субтитры: отсутствуют

Режиссер: Кьюба Гудинг мл.

rating

В ролях:

Кьюба Гудинг мл., Фамке Янссен, Ричард Дрейфусс, Лия Мари Джонсон, Грегг Белло, Кэтрин МакФи, Кен Лернер, Сэм Такур, Джеймс Моусес Блэк, Алекс Ковалев

Описание:

Русский гангстер предлагает бывшему боксёру Родни помочь ему разобраться с приёмным сыном сообщника. Родни всего лишь требуется использовать видео, сделанное фотографом Ником. Но всё идет наперекосяк, и Родни оказывается в опасном мире секса, насилия и мести.

Качество: WEB-DL 1080p
Формат: MKV

Видео: h.264, 5 392 kb/s, 1920x800
Аудио#1: Русский, (AC3, 2 ch, 384 Кбит/с)
скриншот  скриншот  скриншот  

Общее
Уникальный идентификатор : 247389059795066670826812499490366481450 (0xBA1D665A6D68D70288B09588C8E2E42A)
Полное имя : D:\Bayou.Caviar.2O18.D.WEB-DL.1O8Op_KOSHARA.mkv
Формат : Matroska
Версия формата : Version 2
Размер файла : 4,59 Гбайт
Продолжительность : 1 ч. 53 м.
Режим общего битрейта : Переменный
Общий поток : 5778 Кбит/сек
Дата кодирования : UTC 2018-11-15 08:00:36
Программа кодирования : mkvmerge v8.3.0 ('Over the Horizon') 64bit
Библиотека кодирования : libebml v1.3.1 + libmatroska v1.4.2

Видео
Идентификатор : 1
Формат : AVC
Формат/Информация : Advanced Video Codec
Профиль формата : High@L4.1
Параметр CABAC формата : Да
Параметр RefFrames формата : 4 кадра
Идентификатор кодека : V_MPEG4/ISO/AVC
Продолжительность : 1 ч. 53 м.
Вид битрейта : Переменный
Битрейт : 5392 Кбит/сек
Максимальный битрейт : 6200 Кбит/сек
Ширина : 1920 пикселей
Высота : 800 пикселей
Соотношение сторон : 2,40:1
Режим частоты кадров : Постоянный
Частота кадров : 23,976 (24000/1001) кадра/сек
Стандарт вещания : Component
Цветовое пространство : YUV
Субдискретизация насыщенности : 4:2:0
Битовая глубина : 8 бит
Тип развёртки : Прогрессивная
Бит/(Пиксели*Кадры) : 0.143
Размер потока : 4,20 Гбайт (91%)
Default : Да
Forced : Нет
Цветовой диапазон : Limited
Основные цвета : BT.709
Характеристики трансфера : BT.709
Коэффициенты матрицы : BT.709

Аудио
Идентификатор : 2
Формат : AC-3
Формат/Информация : Audio Coding 3
Расширение режима : CM (complete main)
Параметр Endianness формата : Big
Идентификатор кодека : A_AC3
Продолжительность : 1 ч. 53 м.
Вид битрейта : Постоянный
Битрейт : 384 Кбит/сек
Каналы : 2 канала
Расположение каналов : Front: L R
Частота : 48,0 КГц
Частота кадров : 31,250 кадров/сек (1536 spf)
Метод сжатия : С потерями
Размер потока : 313 Мбайт (7%)
Default : Да
Forced : Нет

pb.wtf



Скачать Болотная икра через торрент https://c.radikal.ru/c20/1810/d9/416742f50a75.jpg Скачать фильм Болотная икра через торрент бесплантно в хорошем качестве Описание: Русский гангстер предлагает бывшему боксёру Родни помочь ему разобраться с приёмным сыном сообщника. Родни всего лишь требуется ... 10 10 3
Торрент: Зарегистрирован [2018-11-17 19:58] · скачан: 36 раз
Статус: T временная
Размер: 4.59 GB
Как cкачать? Как скачать Болотная икра через торрент | qTorrent

% Раздел Тема Автор DL S | L
T Фильмы (мультфильмы) cо спонсором показа (Новинки AVI/MKV) [ 4.12 GB ] Болотная икра / Bayou Caviar [2018 WEB-DL 720p] DUB [Line] bober100 Скачать
1 | 0
T Фильмы (мультфильмы) cо спонсором показа (Новинки AVI/MKV) [ 1.46 GB ] Болотная икра / Bayou Caviar [2018 WEB-DLRip] DUB [Line] bober100 Скачать
1 | 0
T Фильмы (мультфильмы) cо спонсором показа (Новинки AVI/MKV) [ 4.06 GB ] Болотная икра / Bayou Caviar [2018 WEB-DL 720p] MVO ["Синема УС"] bober100 Скачать
1 | 0
T Фильмы 2018 [DVDrip, WEB-DLRip, HDrip] (DUB, MVO) [ 1.89 GB ] Болотная икра / Bayou Caviar [2018 BDRip-AVC] MVO [HDRezka Studio] bober100 Скачать
2 | 0

28-11-2019 20:33  

Отключить всю рекламу на сайте

18-11-2018 10:12 Болотная икра Скачать торрент  

в опасном мире секса, о да да, я я pb.wtf



    Дорогой пользователь! Огромная просьба, поблагодарите релизера, оцените раздачу и оставьте свои комментарий, если Вы скачали Болотная икра через торрент бесплатно! Внесите свою лепту в развитие PiratBit!
    Комментировать посты могут только пользователи прошедшие не сложную регистрацию
    Показать сообщения:    

    Болотная икра через торрент
    Скачать бесплатно Болотная икра
    Болотная икра скачать торрент
    Болотная икра смотреть онлайн
    Cкачать фильм Болотная икра бесплатно
    Болотная икра скачать торрент в хорошем качестве
    Болотная икра смотреть онлайн бесплатно в хорошем качестве


    Вы не можете начинать темы
    Вы не можете отвечать на сообщения
    Вы не можете редактировать свои сообщения
    Вы не можете удалять свои сообщения
    Вы не можете голосовать в опросах
    Вы не можете прикреплять файлы к сообщениям
    Вы можете скачивать файлы