Ссылка на приватное зеркало всего за 1$. Внимание количество ограничено!!!

iTunes

iTunes

iTunes

1

iTunes

iTunes

iTunes

WEBRip

iTunes

30
pack

$ от Little Big

ВАЖНО

!!Акция!!

Alien_RageХит недели

RePack

Resident Evil 21

ИГРА 18+

pack

RePack

jed

!!Акция!!

Alien_Rage

RePack

fifa19

RePack

Assassins Creed: Odyssey

RePack

NEED FOR SPEED™ PAYBACK

4 сезон

9 сезон

Бесстыжие 9 сезон

Все сериалы

все сериалы на PB.wtf

RePack

FAR CRY 5
  

Призыв 5 / Invoking 5 (Доминик Смит) [2018, Ужасы, WEB-DL 720p] MVO ["Синема УС"] pb.wtf

Призыв 5 через торрент pb.wtf

Размер: 3.01 GB | Добавлен: 1 год 8 мес. назад | Торрент скачан:63 раза
Скачать  

17-11-2018 20:56 Призыв 5 Скачать торрент  

Призыв 5 / Invoking 5Год выпуска: 2018
Страна: США
Жанр: Ужасы
Продолжительность: 01:22:11
Перевод: Любительский (многоголосый) | "Синема УС"
Субтитры: отсутствуют

Режиссер: Доминик Смит

rating

В ролях:

Бель Делиа, Александра Бард, Дженнифер ван Хеккерен, Кэмрон Робертсон, Кэти Метторст

Описание:

Четыре истории, позволяющие окунуться в мир леденящих душу ужастиков. Испытайте на себе чувство первобытного страха.

Качество: WEB-DL 720p
Формат: MKV

Видео: h.264, 4 860 kb/s, 1280x538
Аудио#1: Русский, (AC3, 2 ch, 384 Кбит/с)
скриншот  скриншот  скриншот  

Общее
Уникальный идентификатор : 205024941580089816616737231329674276514 (0x9A3E5E101FC368838291EA6542262EA2)
Полное имя : D:\Invoking.5.2018.P.WEB-DL.72Op_KOSHARA.mkv
Формат : Matroska
Версия формата : Version 2
Размер файла : 3,01 Гбайт
Продолжительность : 1 ч. 22 м.
Режим общего битрейта : Переменный
Общий поток : 5246 Кбит/сек
Дата кодирования : UTC 2018-11-14 15:20:52
Программа кодирования : mkvmerge v8.3.0 ('Over the Horizon') 64bit
Библиотека кодирования : libebml v1.3.1 + libmatroska v1.4.2

Видео
Идентификатор : 1
Формат : AVC
Формат/Информация : Advanced Video Codec
Профиль формата : High@L4.1
Параметр CABAC формата : Да
Параметр RefFrames формата : 4 кадра
Идентификатор кодека : V_MPEG4/ISO/AVC
Продолжительность : 1 ч. 22 м.
Вид битрейта : Переменный
Битрейт : 4860 Кбит/сек
Максимальный битрейт : 5500 Кбит/сек
Ширина : 1280 пикселей
Высота : 538 пикселей
Соотношение сторон : 2,40:1
Режим частоты кадров : Постоянный
Частота кадров : 23,976 (24000/1001) кадра/сек
Стандарт вещания : Component
Цветовое пространство : YUV
Субдискретизация насыщенности : 4:2:0
Битовая глубина : 8 бит
Тип развёртки : Прогрессивная
Бит/(Пиксели*Кадры) : 0.288
Размер потока : 2,73 Гбайт (91%)
Default : Да
Forced : Нет
Цветовой диапазон : Limited
Основные цвета : BT.709
Характеристики трансфера : BT.709
Коэффициенты матрицы : BT.709

Аудио
Идентификатор : 2
Формат : AC-3
Формат/Информация : Audio Coding 3
Расширение режима : CM (complete main)
Параметр Endianness формата : Big
Идентификатор кодека : A_AC3
Продолжительность : 1 ч. 22 м.
Вид битрейта : Постоянный
Битрейт : 384 Кбит/сек
Каналы : 2 канала
Расположение каналов : Front: L R
Частота : 48,0 КГц
Частота кадров : 31,250 кадров/сек (1536 spf)
Метод сжатия : С потерями
Размер потока : 226 Мбайт (7%)
Default : Да
Forced : Нет

pb.wtf



Скачать Призыв 5 через торрент https://a.radikal.ru/a18/1811/98/4a88cc7fdff9.jpg Скачать фильм Призыв 5 через торрент бесплантно в хорошем качестве Описание: Четыре истории, позволяющие окунуться в мир леденящих душу ужастиков. Испытайте на себе чувство первобытного ... 10 10 4
Info! Золотая раздача, скачанное не засчитывается.
Торрент: Зарегистрирован [2018-11-17 20:56] · скачан: 63 раз
Статус: T временная
Размер: 3.01 GB
Как cкачать? Как скачать Призыв 5 через торрент | qTorrent

% Раздел Тема Автор DL S | L
T Фильмы (мультфильмы) cо спонсором показа (Новинки AVI/MKV) [ 1.36 GB ] Призыв 5 / Invoking 5 [2018 WEB-DLRip] MVO ["Синема УС"] bober100 Скачать
1 | 0

28-11-2019 20:33  

Отключить всю рекламу на сайте

    Дорогой пользователь! Огромная просьба, поблагодарите релизера, оцените раздачу и оставьте свои комментарий, если Вы скачали Призыв 5 через торрент бесплатно! Внесите свою лепту в развитие PiratBit!
    Комментировать посты могут только пользователи прошедшие не сложную регистрацию
    Показать сообщения:    

    Призыв 5 через торрент
    Скачать бесплатно Призыв 5
    Призыв 5 скачать торрент
    Призыв 5 смотреть онлайн
    Cкачать фильм Призыв 5 бесплатно
    Призыв 5 скачать торрент в хорошем качестве
    Призыв 5 смотреть онлайн бесплатно в хорошем качестве


    Вы не можете начинать темы
    Вы не можете отвечать на сообщения
    Вы не можете редактировать свои сообщения
    Вы не можете удалять свои сообщения
    Вы не можете голосовать в опросах
    Вы не можете прикреплять файлы к сообщениям
    Вы можете скачивать файлы