Ссылка на приватное зеркало нашего сайта всего за 1$. Внимание количество ограничено!!!

2 сезон

iTunes

1 сезон

1

iTunes

iTunes

iTunes

1 сезон

RePack

30

ИГРА 18+

pack

ВАЖНО

!!Акция!!

Alien_RageХит недели

RePack

MK11
pack

Забери бонус

RePack

jed

!!Акция!!

Alien_Rage

RePack

fifa19

RePack

Assassins Creed: Odyssey

RePack

NEED FOR SPEED™ PAYBACK

4 сезон

9 сезон

Бесстыжие 9 сезон

Все сериалы

все сериалы на PB.wtf

RePack

FAR CRY 5
  

Чужие и близкие / Серии: 1-4 из 4 (Кира Ангелина, Елена Яковлева (IV) [2016, Мелодрама, HDTV 1080i] pb.wtf

Чужие и близкие через торрент pb.wtf

Размер: 10.18 GB | Добавлен: 1 год 11 мес. назад | Торрент скачан:8 раз
Скачать  

18-11-2018 00:51 Чужие и близкие Скачать торрент  

Чужие и близкиеГод выпуска: 2016
Страна: Россия
Жанр: Мелодрама
Продолжительность: 4 x ~ 00:45:00
Субтитры: отсутствуют

Режиссер: Кира Ангелина, Елена Яковлева (IV)



В ролях:

Екатерина Волкова (I), Даниил Спиваковский, Ксения Радченко (II), Сергей Карякин, Елена Муравьева, Андрей Межулис

Описание:

Лидия и Аркадий вместе десять лет - кажется, все кризисы и бури семейной жизни позади. Неожиданно примерный семьянин Аркадий, разменяв пятый десяток, влюбляется в свою студентку. У них завязывается бурный роман. Но внезапно Аркадий умирает, и все тайное становится явным. Лидия узнает о молодой любовнице покойного мужа. Девушка беременна и хочет избавиться от ребенка. У Лидии нет детей, так как она страдает бесплодием. Лидия пытается отговорить эту девушку от необдуманного шага и берется опекать ее...

Качество: HDTV 1080i
Формат: TS

Видео: MPEG-4 AVC, ~ 7400 Кбит/с, 1920x1080
Аудио: MP2, 2 ch, 192 Кбит/с
скриншот   скриншот   скриншот  

Общее
Идентификатор : 1 (0x1)
Полное имя : D:\Chuzhie.i.blizkie.2016.HDTV.1080i\Chuzhie.i.blizkie.01.2016.HDTV.1080i.ts
Формат : MPEG-TS
Размер файла : 2,49 Гбайт
Продолжительность : 44 м. 43 с.
Режим общего битрейта : Переменный
Общий поток : 7971 Кбит/сек

Видео
Идентификатор : 3511 (0xDB7)
Идентификатор меню : 1055 (0x41F)
Формат : AVC
Формат/Информация : Advanced Video Codec
Профиль формата : High@L4
Параметр CABAC формата : Да
Параметр RefFrames формата : 4 кадра
Параметр GOP формата : M=4, N=32
Идентификатор кодека : 27
Продолжительность : 44 м. 43 с.
Битрейт : 7383 Кбит/сек
Ширина : 1920 пикселей
Высота : 1080 пикселей
Соотношение сторон : 16:9
Частота кадров : 25,000 кадров/сек
Цветовое пространство : YUV
Субдискретизация насыщенности : 4:2:0
Битовая глубина : 8 бит
Тип развёртки : MBAFF
Метод сохранения типа развёртки : Чередующиеся поля
Порядок развёртки : Верхнее поле первое
Бит/(Пиксели*Кадры) : 0.142
Размер потока : 2,31 Гбайт (93%)

Аудио
Идентификатор : 3512 (0xDB8)
Идентификатор меню : 1055 (0x41F)
Формат : MPEG Audio
Версия формата : Version 1
Профиль формата : Layer 2
Режим : Joint stereo
Расширение режима : Intensity Stereo + MS Stereo
Идентификатор кодека : 3
Продолжительность : 44 м. 43 с.
Вид битрейта : Постоянный
Битрейт : 192 Кбит/сек
Каналы : 2 канала
Частота : 48,0 КГц
Метод сжатия : С потерями
Задержка видео : -120 мс.
Размер потока : 61,4 Мбайт (2%)
Язык : Russian

pb.wtf



Скачать Чужие и близкие через торрент http://s017.radikal.ru/i406/1612/77/bdd3929bf374.jpg Скачать фильм Чужие и близкие через торрент бесплантно в хорошем качестве Описание: Лидия и Аркадий вместе десять лет - кажется, все кризисы и бури семейной жизни позади. Неожиданно примерный семьянин Аркадий, ... 10 10 2
Торрент: Зарегистрирован [2018-11-18 00:51] · скачан: 8 раз
Статус: √ проверено
Размер: 10.18 GB
Как cкачать? Как скачать Чужие и близкие через торрент | qTorrent

% Раздел Тема Автор DL S | L
Наши сериалы [ 2.03 GB ] Чужие и близкие / Серии: 1-4 из 4 [2016 SATRip-AVC] aleksan55 Скачать
1 | 0

28-11-2019 20:33  

Отключить всю рекламу на сайте

    Дорогой пользователь! Огромная просьба, поблагодарите релизера, оцените раздачу и оставьте свои комментарий, если Вы скачали Чужие и близкие через торрент бесплатно! Внесите свою лепту в развитие PiratBit!
    Комментировать посты могут только пользователи прошедшие не сложную регистрацию
    Показать сообщения:    

    Чужие и близкие через торрент
    Скачать бесплатно Чужие и близкие
    Чужие и близкие скачать торрент
    Чужие и близкие смотреть онлайн
    Cкачать фильм Чужие и близкие бесплатно
    Чужие и близкие скачать торрент в хорошем качестве
    Чужие и близкие смотреть онлайн бесплатно в хорошем качестве


    Вы не можете начинать темы
    Вы не можете отвечать на сообщения
    Вы не можете редактировать свои сообщения
    Вы не можете удалять свои сообщения
    Вы не можете голосовать в опросах
    Вы не можете прикреплять файлы к сообщениям
    Вы можете скачивать файлы