Ссылка на приватное зеркало нашего сайта всего за 1$. Внимание количество ограничено!!!

2 сезон

iTunes

1 сезон

1

iTunes

iTunes

iTunes

1 сезон

RePack

30

ИГРА 18+

pack

ВАЖНО

!!Акция!!

Alien_RageХит недели

RePack

MK11
pack

Забери бонус

RePack

jed

!!Акция!!

Alien_Rage

RePack

fifa19

RePack

Assassins Creed: Odyssey

RePack

NEED FOR SPEED™ PAYBACK

4 сезон

9 сезон

Бесстыжие 9 сезон

Все сериалы

все сериалы на PB.wtf

RePack

FAR CRY 5
  

Окна дома твоего / Серия 1-4 из 4 / (Александр Высоковский) [2018 г., Драма, SATRip] pb.wtf

Окна дома твоего через торрент pb.wtf

Размер: 2.43 GB | Добавлен: 1 год 11 мес. назад | Торрент скачан:53 раза
Скачать  

18-11-2018 05:37 Окна дома твоего Скачать торрент  

Окна дома твоего / Серия 1- 4 из 4 /
Год выпуска: 2018
Страна: Россия
Жанр: Драма
Продолжительность: 4 х ~00:47:00
Субтитры: Отсутствуют

Режиссер: Александр Высоковский

В ролях: Пелагея Невзорова, Сюзанна Бэлль, Александр Константинов, Борис Хвошнянский, Юлианна Михневич

Описание: Ирина и Полина - родные сестры. Полина мечтает о карьере актрисы, она уверена в себе и привыкла получать желаемое. Ира - скромная и тихая девушка без амбиций. Полине предлагают эпизодическую роль в телесериале. Но во время съемок она ломает раритетный мотоцикл, звонит родителям, чтобы те привезли ей деньги. По дороге родители попадают в аварию, оба погибают на месте. Пока Полина винит в случившемся себя, Ирине приходится взвалить на себя заботы и о бизнесе отца и о сестре...

Качество: SATRip
Формат: AVI
Видео кодек: XviD
Аудио кодек: MP3
Видео: 720x400 (1.80:1), 25 fps, XviD build 50 ~1800 kbps
Аудио#1: 48 kHz, MPEG Layer 3, 2 ch, ~128.00 kbps avg
скриншот   скриншот   скриншот   скриншот  

General
Complete name : H:\релизы.торрентфайл\Okna.doma.tvoego.SATRip.[www.riperam.org]\Okna.doma.tvoego.01.SATRip.[www.riperam.org].avi
Format : AVI
Format/Info : Audio Video Interleave
File size : 629 MiB
Duration : 45mn 24s
Overall bit rate : 1 938 Kbps
Writing application : VirtualDubMod 1.5.10.3 | www.virtualdub-fr.org || (build 2550/release)
Writing library : VirtualDubMod build 2550/release

Video
ID : 0
Format : MPEG-4 Visual
Format profile : Advanced Simple@L5
Format settings, BVOP : 2
Format settings, QPel : No
Format settings, GMC : No warppoints
Format settings, Matrix : Default (H.263)
Codec ID : XVID
Codec ID/Hint : XviD
Duration : 45mn 24s
Bit rate : 1 800 Kbps
Width : 720 pixels
Height : 400 pixels
Display aspect ratio : 16:9
Frame rate : 25.000 fps
Color space : YUV
Chroma subsampling : 4:2:0
Bit depth : 8 bits
Scan type : Progressive
Compression mode : Lossy
Bits/(Pixel*Frame) : 0.250
Stream size : 585 MiB (93%)
Writing library : XviD 1.2.1 (UTC 2008-12-04)

Audio
ID : 1
Format : MPEG Audio
Format version : Version 1
Format profile : Layer 3
Mode : Joint stereo
Mode extension : MS Stereo
Codec ID : 55
Codec ID/Hint : MP3
Duration : 45mn 24s
Bit rate mode : Constant
Bit rate : 128 Kbps
Channel(s) : 2 channels
Sampling rate : 48.0 KHz
Compression mode : Lossy
Stream size : 41.6 MiB (7%)
Alignment : Aligned on interleaves
Interleave, duration : 40 ms (1.00 video frame)
Interleave, preload duration : 504 ms
Writing library : LAME3.99r
Encoding settings : -m j -V 4 -q 9 -lowpass 17 -b 128

Внимание! Раздача ведётся путём добавления новых серий; при каждом добавлении создётся новый торрент. Чтобы начать докачку новой серии, пользователям необходимо сделать следующее:
  • Остановить скачивание,
  • Удалить старый торрент у себя из клиента (старые серии удалять не надо),
  • Скачать новый торрент и запустить его у себя в клиенте вместо старого, при этом указать клиенту путь в старую папку куда и должно происходить скачивание новых серий.
Ваш клиент при этом должен произвести хеширование (проверку) старой папки (если не производит сам - помогите ему сделать это), и будет докачивать только те серии которых у вас ещё нет. Старые серии при этом не удаляются, а продолжают раздаваться!

Eсли вы уже удалили старые серии, то предотвратить повторную закачку старых серий можно, отжав галочку в соответсвующих местах при запуске нового торрента. По возможности, желательно не удалять старые серии как можно дольше чтобы релизёр не столько продолжал раздавать старые серии, а смог сконцентрироваться на новых.
pb.wtf



Скачать Окна дома твоего через торрент http://pic1.kartinco.top/images/11/jow5d.jpg Скачать фильм Окна дома твоего через торрент бесплантно в хорошем качестве Описание: Ирина и Полина - родные сестры. Полина мечтает о карьере актрисы, она уверена в себе и привыкла получать желаемое. Ира - скромная ... 8.3 10 3
Торрент: Зарегистрирован [2018-11-18 09:03] · скачан: 53 раз
Статус: √ проверено
Размер: 2.43 GB
Как cкачать? Как скачать Окна дома твоего через торрент | qTorrent

28-11-2019 20:33  

Отключить всю рекламу на сайте

    Дорогой пользователь! Огромная просьба, поблагодарите релизера, оцените раздачу и оставьте свои комментарий, если Вы скачали Окна дома твоего через торрент бесплатно! Внесите свою лепту в развитие PiratBit!
    Комментировать посты могут только пользователи прошедшие не сложную регистрацию
    Показать сообщения:    

    Окна дома твоего через торрент
    Скачать бесплатно Окна дома твоего
    Окна дома твоего скачать торрент
    Окна дома твоего смотреть онлайн
    Cкачать фильм Окна дома твоего бесплатно
    Окна дома твоего скачать торрент в хорошем качестве
    Окна дома твоего смотреть онлайн бесплатно в хорошем качестве


    Вы не можете начинать темы
    Вы не можете отвечать на сообщения
    Вы не можете редактировать свои сообщения
    Вы не можете удалять свои сообщения
    Вы не можете голосовать в опросах
    Вы не можете прикреплять файлы к сообщениям
    Вы можете скачивать файлы