новый адрес
Ссылка на приватное зеркало всего за 1$. Внимание количество ограничено!!!

iTunes

1+1

iTunes

мы

WEB-DL

1

iTunes

Чернобыль

iTunes

Ральф против интернета

Лицензия

ПШазам

Лицензия

Оно 2

Лицензия

30
pack

Вам бонус

ВАЖНО

!!Акция!!

Alien_RageХит недели

RePack

Resident Evil 21

ИГРА 18+

pack

RePack

jed

!!Акция!!

Alien_Rage

RePack

fifa19

RePack

Assassins Creed: Odyssey

RePack

NEED FOR SPEED™ PAYBACK

3 сезон

9 сезон

Бесстыжие 9 сезон

Все сериалы

все сериалы на PB.wtf

RePack

FAR CRY 5
Ребята, катастрофически не хватает 1900р. для оплаты серверов за Октябрь (всвязи с блокировками трафик упал в 3 раза), 1-2р., выручайте.
  

Мара. Пожиратель снов / Mara (Клайв Тонг) [2018, Ужасы, боевик, драма, BDRip-AVC] Dub [iTunes], AVO [BadBajo] - ExKinoRay pb.wtf

Мара. Пожиратель снов через торрент pb.wtf

Размер: 1.87 GB | Добавлен: 1 год назад | Торрент скачан:126 раз
Скачать  

18-11-2018 06:23 Мара. Пожиратель снов Скачать торрент  

Информация о фильме
Название: Мара. Пожиратель снов
Оригинальное название: Mara
Год выхода: 2018
Жанр: Ужасы, Триллер, Криминал
Режиссер: Клайв Тонг
В ролях: Ольга Куриленко, Хавьер Ботет, Митч Икинс, Лэнс Э. Николс, Рози Феллнер, Дэнди Баррет, Крэйг Конуэй, Мелисса Болона, Кэти МакГроу

Описание:
Кейт Фуллер приписана к расследованию убийства мужчины, которого, как считает полиция, задушила во сне собственная жена. В качестве свидетеля проходит восьмилетняя дочь убитого, Софи. Все дальше углубляясь в это дело, Кейт узнает о существовании древнего демона, убивающего своих жертв во сне. Она испытывает те же чудовищные симптомы и кошмары, поэтому сон становится для неё опасным.

rating

Страна: Великобритания, США
Студия: Moon River Studios,Grodnik /Aloe Productions,Aloe Entertainment
Продолжительность: 01:39:04
Перевод: Дублированный | iTunes
Авторский (одноголосый, закадровый) - А.Важенин (BadBajo)
Субтитры: Английские

Формат: MKV
Качество: BDRip-AVC
Видео: MPEG-4 AVC, 1024x428 (2.40:1), 23,976 fps, ~ 1489 kbps
Русский 1: AC3, 5/1 ch, 384 Кбит/сек, CBR, 48,0 КГц (iTunes)
Русский 2: AC3, 5/1 ch, 384 Кбит/сек, CBR, 48,0 КГц (BadBajo)
Английский: AC3, 5/1 ch, 448 Кбит/сек, CBR, 48,0 КГц
General
Unique ID : 187682754431352930298722009371631155731 (0x8D326238E1A5FC7594633032CC3BFA13)
Complete name : D:\Mara.2018.2xRus.BDRip.AVC.ExKinoRay.mkv
Format : Matroska
Format version : Version 2
File size : 1.87 GiB
Duration : 1 h 39 min
Overall bit rate : 2 705 kb/s
Movie name : Mara (2018) from ExKinoRay
Encoded date : UTC 2018-11-18 05:34:37
Writing application : mkvmerge v5.6.0 ('Kenya Kane') built on May 27 2012 16:44:04
Writing library : libebml v1.2.3 + libmatroska v1.3.0

Video
ID : 1
Format : AVC
Format/Info : Advanced Video Codec
Format profile : High@L4.1
Format settings, CABAC : Yes
Format settings, ReFrames : 12 frames
Codec ID : V_MPEG4/ISO/AVC
Duration : 1 h 39 min
Bit rate : 1 489 kb/s
Width : 1 024 pixels
Height : 428 pixels
Display aspect ratio : 2.40:1
Frame rate mode : Constant
Frame rate : 23.976 (23976/1000) FPS
Color space : YUV
Chroma subsampling : 4:2:0
Bit depth : 8 bits
Scan type : Progressive
Bits/(Pixel*Frame) : 0.142
Stream size : 1 017 MiB (53%)
Title : Enigma
Writing library : x264 core 152 r2851 ba24899
Encoding settings : cabac=1 / ref=12 / deblock=1:-2:-2 / analyse=0x3:0x113 / me=umh / subme=10 / psy=1 / psy_rd=1.05:0.10 / mixed_ref=1 / me_range=32 / chroma_me=1 / trellis=2 / 8x8dct=1 / cqm=0 / deadzone=21,11 / fast_pskip=0 / chroma_qp_offset=-3 / threads=12 / lookahead_threads=3 / sliced_threads=0 / nr=0 / decimate=0 / interlaced=0 / bluray_compat=0 / constrained_intra=0 / bframes=14 / b_pyramid=2 / b_adapt=2 / b_bias=0 / direct=3 / weightb=1 / open_gop=0 / weightp=2 / keyint=240 / keyint_min=23 / scenecut=40 / intra_refresh=0 / rc=2pass / mbtree=0 / bitrate=1489 / ratetol=1.0 / qcomp=0.65 / qpmin=0 / qpmax=51 / qpstep=4 / cplxblur=20.0 / qblur=0.5 / ip_ratio=1.40 / pb_ratio=1.30 / aq=1:1.00
Language : English
Default : Yes
Forced : No
Color range : Limited
Color primaries : BT.709
Transfer characteristics : BT.709
Matrix coefficients : BT.709

Audio #1
ID : 2
Format : AC-3
Format/Info : Audio Coding 3
Mode extension : CM (complete main)
Format settings, Endianness : Big
Codec ID : A_AC3
Duration : 1 h 39 min
Bit rate mode : Constant
Bit rate : 384 kb/s
Channel(s) : 6 channels
Channel positions : Front: L C R, Side: L R, LFE
Sampling rate : 48.0 kHz
Frame rate : 31.250 FPS (1536 spf)
Compression mode : Lossy
Stream size : 272 MiB (14%)
Title : Dub (iTunes)
Language : Russian
Default : Yes
Forced : No

Audio #2
ID : 3
Format : AC-3
Format/Info : Audio Coding 3
Mode extension : CM (complete main)
Format settings, Endianness : Big
Codec ID : A_AC3
Duration : 1 h 39 min
Bit rate mode : Constant
Bit rate : 384 kb/s
Channel(s) : 6 channels
Channel positions : Front: L C R, Side: L R, LFE
Sampling rate : 48.0 kHz
Frame rate : 31.250 FPS (1536 spf)
Compression mode : Lossy
Stream size : 272 MiB (14%)
Title : AVO (BadBajo)
Language : Russian
Default : No
Forced : No

Audio #3
ID : 4
Format : AC-3
Format/Info : Audio Coding 3
Mode extension : CM (complete main)
Format settings, Endianness : Big
Codec ID : A_AC3
Duration : 1 h 39 min
Bit rate mode : Constant
Bit rate : 448 kb/s
Channel(s) : 6 channels
Channel positions : Front: L C R, Side: L R, LFE
Sampling rate : 48.0 kHz
Frame rate : 31.250 FPS (1536 spf)
Compression mode : Lossy
Stream size : 317 MiB (17%)
Language : English
Default : No
Forced : No

Text #1
ID : 5
Format : UTF-8
Codec ID : S_TEXT/UTF8
Codec ID/Info : UTF-8 Plain Text
Title : Full
Language : English
Default : No
Forced : No

Text #2
ID : 6
Format : UTF-8
Codec ID : S_TEXT/UTF8
Codec ID/Info : UTF-8 Plain Text
Title : SDH
Language : English
Default : No
Forced : No

Menu
00:00:00.000 : :00:00:00.000
00:05:37.504 : :00:05:37.504
00:12:59.904 : :00:12:59.904
00:17:48.317 : :00:17:48.317
00:24:14.870 : :00:24:14.870
00:29:21.301 : :00:29:21.301
00:38:57.710 : :00:38:57.710
00:43:11.214 : :00:43:11.214
00:49:14.869 : :00:49:14.869
00:55:35.207 : :00:55:35.207
01:03:00.944 : :01:03:00.944
01:06:02.500 : :01:06:02.500
01:15:13.092 : :01:15:13.092
01:23:41.725 : :01:23:41.725
01:28:35.101 : :01:28:35.101
01:31:52.507 : :01:31:52.507
Релиз от:

Автор релиза: pb.wtf



Скачать Мара. Пожиратель снов через торрент https://b.radikal.ru/b38/1809/7c/739af5016da0.jpg Скачать фильм Мара. Пожиратель снов через торрент бесплантно в хорошем качестве Описание:Кейт Фуллер приписана к расследованию убийства мужчины, которого, как считает полиция, задушила во сне собственная жена. В ... 10 10 4
Info! Золотая раздача, скачанное не засчитывается.
Торрент: Зарегистрирован [2018-11-18 06:23] · скачан: 126 раз
Статус: √ проверено
Размер: 1.87 GB
Как cкачать? Как скачать Мара. Пожиратель снов через торрент | qTorrent

28-11-2019 20:33  

Отключить всю рекламу на сайте

18-11-2018 07:12 Мара. Пожиратель снов Скачать торрент  

всё в тренде, но не цепляет 5.5\10pb.wtf



    Дорогой пользователь! Огромная просьба, поблагодарите релизера, оцените раздачу и оставьте свои комментарий, если Вы скачали Мара. Пожиратель снов через торрент бесплатно! Внесите свою лепту в развитие PiratBit!
    Комментировать посты могут только пользователи прошедшие не сложную регистрацию
    Показать сообщения:    

    Мара. Пожиратель снов через торрент
    Скачать бесплатно Мара. Пожиратель снов
    Мара. Пожиратель снов скачать торрент
    Мара. Пожиратель снов смотреть онлайн
    Cкачать фильм Мара. Пожиратель снов бесплатно
    Мара. Пожиратель снов скачать торрент в хорошем качестве
    Мара. Пожиратель снов смотреть онлайн бесплатно в хорошем качестве


    Вы не можете начинать темы
    Вы не можете отвечать на сообщения
    Вы не можете редактировать свои сообщения
    Вы не можете удалять свои сообщения
    Вы не можете голосовать в опросах
    Вы не можете прикреплять файлы к сообщениям
    Вы можете скачивать файлы