новый адрес
Ссылка на приватное зеркало всего за 1$. Внимание количество ограничено!!!

iTunes

1+1

iTunes

мы

WEB-DL

1

iTunes

Чернобыль

iTunes

Ральф против интернета

Лицензия

ПШазам

Лицензия

Оно 2

Лицензия

30
pack

Вам бонус

ВАЖНО

!!Акция!!

Alien_RageХит недели

RePack

Resident Evil 21

ИГРА 18+

pack

RePack

jed

!!Акция!!

Alien_Rage

RePack

fifa19

RePack

Assassins Creed: Odyssey

RePack

NEED FOR SPEED™ PAYBACK

3 сезон

9 сезон

Бесстыжие 9 сезон

Все сериалы

все сериалы на PB.wtf

RePack

FAR CRY 5
Ребята, катастрофически не хватает 1900р. для оплаты серверов за Октябрь (всвязи с блокировками трафик упал в 3 раза), 1-2р., выручайте.
  

Суд сумасшедших (Григорий Рошаль) [1961, СССР, фантастика, драма, VHSRip от AVP Studio] pb.wtf

Суд сумасшедших через торрент pb.wtf

Размер: 745 MB | Добавлен: 1 год назад | Торрент скачан:9 раз
Скачать  

18-11-2018 07:43 Суд сумасшедших Скачать торрент  

Суд сумасшедших
Страна: СССР
Производство: Мосфильм

Жанр: фантастика, драма
Год выпуска: 1961
Продолжительность: 01:54:25

Перевод: Не требуется
Cубтитры: нет
Оригинальная аудиодорожка: русский

Режиссер: Григорий Рошаль

В ролях:
Василий Ливанов, Ирина Скобцева, Виктор Хохряков, Владимир Белокуров, Владимир Емельянов, Андрей Кончаловский, Александр Смирнов, Лидия Сухаревская, Михаил Козаков, Георгий Черноволенко, Владимир Балашов, Юрий Яковлев, Ольга Красина, Майя Булгакова, Гарри Дунц, Ариадна Шенгелая, Роман Хомятов, Роберт Росс, Нонна Тен, Павел Павленко...
Об актёрах подробней

Описание:
Германия, тридцатые годы двадцатого века. Молодой ученый профессор Иоганнес Вернер открыл лучи животворящей силы. Ученый отказывается отдать свое изобретение для использования в военных целях и, разбив аппаратуру, бежит в США, где долгое время скрывается под фамилией Мартини. Однажды, получив приглашение в военно-промышленный концерн для ознакомления с новым европейским изобретением, Вернер встречает своего бывшего ученика Губера. Предатель и фашист Губер по украденным схемам восстановил прибор профессора и демонстрирует его, как свое изобретение.

Исходник: VHS
Качество видео: VHSRip
Формат видео: AVI

Видео: 704x288 (2,40:1), 25,000 кадров/сек, XviD ~ 708 kbps avg, 0.140 bit/pixel
Аудио: 48 kHz, Dolby Digital AC3 2.0, 192 kbps

Раздача от:
Общее
Полное имя : Sud.sumasshedshih.1961.VHSRip_[New-team]_by_AVP_Studio.avi
Формат : AVI
Формат/Информация : Audio Video Interleave
Размер файла : 745 Мбайт
Продолжительность : 1 ч. 54 м.
Общий поток : 910 Кбит/сек
Программа кодирования : VirtualDubMod 1.5.10.3 | www.virtualdub-fr.org || (build 2550/release)
Библиотека кодирования : VirtualDubMod build 2550/release

Видео
Идентификатор : 0
Формат : MPEG-4 Visual
Профиль формата : Advanced Simple@L5
Настройки формата : BVOP1 / Custom Matrix
Параметр BVOP формата : 1
Параметр QPel формата : Нет
Параметр GMC формата : Без точки перехода
Параметр матрицы формата : Выборочная
Идентификатор кодека : XVID
Идентификатор кодека/Подсказка : XviD
Продолжительность : 1 ч. 54 м.
Битрейт : 708 Кбит/сек
Ширина : 704 пикселя
Высота : 288 пикселей
Соотношение сторон : 2,40:1
Частота кадров : 25,000 кадров/сек
Цветовое пространство : YUV
Субдискретизация насыщенности : 4:2:0
Битовая глубина : 8 бит
Тип развёртки : Прогрессивная
Метод сжатия : С потерями
Бит/(Пиксели*Кадры) : 0.140
Размер потока : 580 Мбайт (78%)
Библиотека кодирования : XviD 73

Аудио
Идентификатор : 1
Формат : AC-3
Формат/Информация : Audio Coding 3
Коммерческое название : Dolby Digital
Идентификатор кодека : 2000
Продолжительность : 1 ч. 54 м.
Вид битрейта : Постоянный
Битрейт : 192 Кбит/сек
Каналы : 2 канала
Channel layout : L R
Частота : 48,0 КГц
Частота кадров : 31,250 кадров/сек (1536 SPF)
Битовая глубина : 16 бит
Метод сжатия : С потерями
Размер потока : 157 Мбайт (21%)
Выравнивание : Разделение по промежуткам
Продолжительность промежутка : 40 мс. (1,00 видеокадр)
Время предзагрузки промежутка : 500 мс
pb.wtf



Скачать Суд сумасшедших через торрент http://picplus.ru/img/1811/18/7c76f09a.png Скачать фильм Суд сумасшедших через торрент бесплантно в хорошем качестве Описание:Германия, тридцатые годы двадцатого века. Молодой ученый профессор Иоганнес Вернер открыл лучи животворящей силы. Ученый ... 5 10 1
Info! Золотая раздача, скачанное не засчитывается.
Торрент: Зарегистрирован [2018-11-18 07:43] · скачан: 9 раз
Статус: √ проверено
Размер: 745 MB
Как cкачать? Как скачать Суд сумасшедших через торрент | qTorrent

% Раздел Тема Автор DL S | L
Кино СССР [ 1.09 GB ] Суд сумасшедших [1961 СССР VHSRip-AVC от AVP Studio] AVP Studio Скачать
1 | 0

28-11-2019 20:33  

Отключить всю рекламу на сайте

    Дорогой пользователь! Огромная просьба, поблагодарите релизера, оцените раздачу и оставьте свои комментарий, если Вы скачали Суд сумасшедших через торрент бесплатно! Внесите свою лепту в развитие PiratBit!
    Комментировать посты могут только пользователи прошедшие не сложную регистрацию
    Показать сообщения:    

    Суд сумасшедших через торрент
    Скачать бесплатно Суд сумасшедших
    Суд сумасшедших скачать торрент
    Суд сумасшедших смотреть онлайн
    Cкачать фильм Суд сумасшедших бесплатно
    Суд сумасшедших скачать торрент в хорошем качестве
    Суд сумасшедших смотреть онлайн бесплатно в хорошем качестве


    Вы не можете начинать темы
    Вы не можете отвечать на сообщения
    Вы не можете редактировать свои сообщения
    Вы не можете удалять свои сообщения
    Вы не можете голосовать в опросах
    Вы не можете прикреплять файлы к сообщениям
    Вы можете скачивать файлы