Ссылка на приватное зеркало всего за 1$. Внимание количество ограничено!!!

OK

1+1

iTunes

мы

OK

1

WEB-DLRip

Джокер

Пифагор

Ведьмак / The Witcher сериал

iTunes

ПШазам

ОК

Оно 2

iTunes

30
pack

Вам бонус

ВАЖНО

!!Акция!!

Alien_RageХит недели

RePack

Resident Evil 21

ИГРА 18+

pack

RePack

jed

RePack

fifa19

RePack

Assassins Creed: Odyssey

RePack

NEED FOR SPEED™ PAYBACK

4 сезон

9 сезон

Бесстыжие 9 сезон

Все сериалы

все сериалы на PB.wtf

RePack

FAR CRY 5
  

Реквием по бойцу / Requiem for a Fighter (Дэнни Патрик) [2018, драма, WEB-DL 720p] MVO ["Синема УС"] pb.wtf

Реквием по бойцу через торрент pb.wtf

Размер: 3.25 GB | Добавлен: 1 год 2 мес. назад | Торрент скачан:25 раз
Скачать  

18-11-2018 10:49 Реквием по бойцу Скачать торрент  

Реквием по бойцу / Requiem for a FighterГод выпуска: 2018
Страна: Ирландия
Жанр: драма
Продолжительность: 01:29:55
Перевод: Любительский (многоголосый) | "Синема УС"
Субтитры: отсутствуют

Режиссер: Дэнни Патрик

rating

В ролях:

Ким Колд, Енн Рейтел, Эди Ньюман, Грэйсон Джеймс Мэтьюз, Антти Хакала, Шеймас Болл, Шэйн Робинсон, Эллиот Грей, Джонни Эверетт

Описание:

Офицер датской армии бросает службу и возвращается домой в Северную Ирландию, чтобы расследовать загадочное самоубийство единственного сына

Качество: WEB-DL 720p
Формат: MKV

Видео: h.264, 4 791 kb/s, 1280x544
Аудио#1: Русский, (AC3, 2 ch, 384 Кбит/с)
скриншот  скриншот  скриншот  

Общее
Уникальный идентификатор : 207365968166186866417580247141682620801 (0x9C013B95C0F616CEBCC0FACBA711A981)
Полное имя : D:\Requiem.for.a.Fighter.2O18.P.WEB-DL.72Op_KOSHARA.mkv
Формат : Matroska
Версия формата : Version 2
Размер файла : 3,25 Гбайт
Продолжительность : 1 ч. 29 м.
Режим общего битрейта : Переменный
Общий поток : 5177 Кбит/сек
Дата кодирования : UTC 2018-11-16 20:37:13
Программа кодирования : mkvmerge v8.3.0 ('Over the Horizon') 64bit
Библиотека кодирования : libebml v1.3.1 + libmatroska v1.4.2

Видео
Идентификатор : 1
Формат : AVC
Формат/Информация : Advanced Video Codec
Профиль формата : High@L4.1
Параметр CABAC формата : Да
Параметр RefFrames формата : 4 кадра
Идентификатор кодека : V_MPEG4/ISO/AVC
Продолжительность : 1 ч. 29 м.
Вид битрейта : Переменный
Битрейт : 4791 Кбит/сек
Максимальный битрейт : 5500 Кбит/сек
Ширина : 1280 пикселей
Высота : 544 пикселя
Соотношение сторон : 2,35:1
Режим частоты кадров : Постоянный
Частота кадров : 23,976 (24000/1001) кадра/сек
Стандарт вещания : Component
Цветовое пространство : YUV
Субдискретизация насыщенности : 4:2:0
Битовая глубина : 8 бит
Тип развёртки : Прогрессивная
Бит/(Пиксели*Кадры) : 0.281
Размер потока : 2,95 Гбайт (91%)
Default : Да
Forced : Нет
Цветовой диапазон : Limited
Основные цвета : BT.709
Характеристики трансфера : BT.709
Коэффициенты матрицы : BT.709

Аудио
Идентификатор : 2
Формат : AC-3
Формат/Информация : Audio Coding 3
Расширение режима : CM (complete main)
Параметр Endianness формата : Big
Идентификатор кодека : A_AC3
Продолжительность : 1 ч. 29 м.
Вид битрейта : Постоянный
Битрейт : 384 Кбит/сек
Каналы : 2 канала
Расположение каналов : Front: L R
Частота : 48,0 КГц
Частота кадров : 31,250 кадров/сек (1536 spf)
Метод сжатия : С потерями
Размер потока : 247 Мбайт (7%)
Default : Да
Forced : Нет

pb.wtf



Скачать Реквием по бойцу через торрент https://c.radikal.ru/c35/1811/f9/0696162ab447.jpg Скачать фильм Реквием по бойцу через торрент бесплантно в хорошем качестве Описание: Офицер датской армии бросает службу и возвращается домой в Северную Ирландию, чтобы расследовать загадочное самоубийство ... 10 10 2
Торрент: Зарегистрирован [2018-11-18 10:49] · скачан: 25 раз
Статус: T временная
Размер: 3.25 GB
Как cкачать? Как скачать Реквием по бойцу через торрент | qTorrent

% Раздел Тема Автор DL S | L
T Фильмы (мультфильмы) cо спонсором показа (Новинки AVI/MKV) [ 1.37 GB ] Реквием по бойцу / Requiem for a Fighter [2018 WEB-DLRip] MVO ["Синема УС"] bober100 Скачать
1 | 0

28-11-2019 20:33  

Отключить всю рекламу на сайте

18-11-2018 13:41 Реквием по бойцу Скачать торрент  

похоже знатный фильм ))) IMDb: 2.60 (18)pb.wtf



    Дорогой пользователь! Огромная просьба, поблагодарите релизера, оцените раздачу и оставьте свои комментарий, если Вы скачали Реквием по бойцу через торрент бесплатно! Внесите свою лепту в развитие PiratBit!
    Комментировать посты могут только пользователи прошедшие не сложную регистрацию
    Показать сообщения:    

    Реквием по бойцу через торрент
    Скачать бесплатно Реквием по бойцу
    Реквием по бойцу скачать торрент
    Реквием по бойцу смотреть онлайн
    Cкачать фильм Реквием по бойцу бесплатно
    Реквием по бойцу скачать торрент в хорошем качестве
    Реквием по бойцу смотреть онлайн бесплатно в хорошем качестве


    Вы не можете начинать темы
    Вы не можете отвечать на сообщения
    Вы не можете редактировать свои сообщения
    Вы не можете удалять свои сообщения
    Вы не можете голосовать в опросах
    Вы не можете прикреплять файлы к сообщениям
    Вы можете скачивать файлы