Ссылка на приватное зеркало нашего сайта всего за 1$. Внимание количество ограничено!!!

2 сезон

iTunes

1 сезон

1

2 сезон

2 сезон

iTunes

1 сезон

RePack

30

Ultimate

ВАЖНО

ИГРА 18+

pack

RePack

MK11
pack

Забери бонус

RePack

jed

!!Акция!!

Alien_Rage

RePack

fifa19

RePack

Assassins Creed: Odyssey

RePack

NEED FOR SPEED™ PAYBACK

4 сезон

9 сезон

Бесстыжие 9 сезон

Все сериалы

все сериалы на PB.wtf

RePack

FAR CRY 5
  

Бездна / The Abyss / Special Edition (Джеймс Кэмерон) [1989 г., HDTVRip-HEVC 1080p, 10bit, Профессиональный (многоголосый)] pb.wtf

Скачать  

18-11-2018 12:15 Бездна Скачать торрент  

Бездна / The Abyss / Special Edition
Год выпуска: 1989
Страна: США
Продолжительность: 02:50:53
Перевод: Профессиональный (многоголосый)
Субтитры: Нет

Режиссер: Джеймс Кэмерон



В ролях: Эд Харрис, Мэри Элизабет Мастрантонио, Майкл Бьен

Описание: Атомная подводная лодка «Монтана» ВМФ США с ядерным оружием на борту терпит крушение на огромной глубине. Министерство флота просит помощи у специалистов подводной исследовательской станции, работающей неподалеку от места аварии субмарины.
При поддержке четырех военных разведчиков исследователи должны выяснить возможную причину трагедии и нейтрализовать ядерные боеголовки. Но в океанской бездне им предстоит столкнуться с неведомым…

Качество: HDTVRip 1080p
Формат: MKV
Видео кодек: H.265
Аудио кодек: DTS
Видео: HEVC/H.265, 1920x820, 4452 Kbps
Аудио#1: DTS, 6 ch, 1510 Kbps | русский|Многоголосый закадровый (MVO - Киномания)
Релиз от: ADVOKAT69
скриншот  ,скриншот  ,скриншот  ,скриншот  ,

Общее
Уникальный идентификатор : 241248217734813372007031486162260665023 (0xB57EB776CDC91EA390D4778A3E1F22BF)
Полное имя : J:\КИНО\HEVC\Бездна HEVC 10 bit.mkv
Формат : Matroska
Версия формата : Version 4 / Version 2
Размер файла : 7,12 Гбайт
Продолжительность : 2 ч. 50 м.
Общий поток : 5962 Кбит/сек
Дата кодирования : UTC 2018-10-09 16:21:09
Программа кодирования : mkvmerge v9.2.0 ('Photograph') 64bit
Библиотека кодирования : libebml v1.3.3 + libmatroska v1.4.4
Writing frontend : StaxRip v1.7.0.6

Видео
Идентификатор : 1
Формат : HEVC
Формат/Информация : High Efficiency Video Coding
Профиль формата : Main 10@L4@Main
Идентификатор кодека : V_MPEGH/ISO/HEVC
Продолжительность : 2 ч. 50 м.
Битрейт : 4452 Кбит/сек
Ширина : 1920 пикселей
Высота : 820 пикселей
Соотношение сторон : 2,35:1
Режим частоты кадров : Постоянный
Частота кадров : 23,976 (24000/1001) кадра/сек
Цветовое пространство : YUV
Субдискретизация насыщенности : 4:2:0
Битовая глубина : 10 бит
Бит/(Пиксели*Кадры) : 0.118
Размер потока : 5,31 Гбайт (75%)
Библиотека кодирования : x265 2.8+10-703eade86b53:[Windows][MSVC 1900][64 bit] 10bit
Настройки программы : cpuid=1111039 / frame-threads=4 / numa-pools=16 / wpp / no-pmode / no-pme / no-psnr / no-ssim / log-level=2 / input-csp=1 / input-res=1920x820 / interlace=0 / total-frames=245830 / level-idc=0 / high-tier=1 / uhd-bd=0 / ref=4 / no-allow-non-conformance / no-repeat-headers / annexb / no-aud / no-hrd / info / hash=0 / no-temporal-layers / open-gop / min-keyint=23 / keyint=250 / gop-lookahead=0 / bframes=8 / b-adapt=2 / b-pyramid / bframe-bias=0 / rc-lookahead=80 / lookahead-slices=4 / scenecut=40 / radl=0 / no-intra-refresh / ctu=64 / min-cu-size=8 / no-rect / no-amp / max-tu-size=32 / tu-inter-depth=1 / tu-intra-depth=1 / limit-tu=0 / rdoq-level=2 / dynamic-rd=0.00 / no-ssim-rd / signhide / no-tskip / nr-intra=0 / nr-inter=0 / no-constrained-intra / no-strong-intra-smoothing / max-merge=3 / limit-refs=3 / limit-modes / me=3 / subme=5 / merange=57 / temporal-mvp / weightp / weightb / no-analyze-src-pics / deblock=-3:-3 / no-sao / no-sao-non-deblock / rd=4 / no-early-skip / rskip / no-fast-intra / no-tskip-fast / no-cu-lossless / no-b-intra / no-splitrd-skip / rdpenalty=0 / psy-rd=1.50 / psy-rdoq=1.50 / no-rd-refine / no-lossless / cbqpoffs=0 / crqpoffs=0 / rc=crf / crf=20.0 / qcomp=0.60 / qpstep=4 / stats-write=0 / stats-read=0 / ipratio=1.40 / pbratio=1.30 / aq-mode=3 / aq-strength=1.00 / cutree / zone-count=0 / no-strict-cbr / qg-size=32 / no-rc-grain / qpmax=69 / qpmin=0 / no-const-vbv / sar=0 / overscan=0 / videoformat=5 / range=0 / colorprim=2 / transfer=2 / colormatrix=2 / chromaloc=0 / display-window=0 / max-cll=0,0 / min-luma=0 / max-luma=1023 / log2-max-poc-lsb=8 / vui-timing-info / vui-hrd-info / slices=1 / no-opt-qp-pps / no-opt-ref-list-length-pps / no-multi-pass-opt-rps / scenecut-bias=0.05 / no-opt-cu-delta-qp / no-aq-motion / no-hdr / no-hdr-opt / no-dhdr10-opt / no-idr-recovery-sei / analysis-reuse-level=5 / scale-factor=0 / refine-intra=0 / refine-inter=0 / refine-mv=0 / no-limit-sao / ctu-info=0 / no-lowpass-dct / refine-mv-type=0 / copy-pic=1 / max-ausize-factor=1.0 / no-dynamic-refine / no-single-sei
Default : Да
Forced : Нет

Аудио
Идентификатор : 2
Формат : DTS
Формат/Информация : Digital Theater Systems
Идентификатор кодека : A_DTS
Продолжительность : 2 ч. 50 м.
Вид битрейта : Постоянный
Битрейт : 1510 Кбит/сек
Каналы : 6 каналов
Расположение каналов : Front: L C R, Side: L R, LFE
Частота : 48,0 КГц
Частота кадров : 93,750 кадра/сек (512 SPF)
Битовая глубина : 24 бит
Метод сжатия : С потерями
Размер потока : 1,80 Гбайт (25%)
Default : Да
Forced : Нет

Меню
00:00:00.000 : en:Chapter 01
00:05:00.383 : en:Chapter 02
00:09:59.849 : en:Chapter 03
00:15:00.399 : en:Chapter 04
00:20:00.449 : en:Chapter 05
00:24:59.915 : en:Chapter 06
00:29:59.756 : en:Chapter 07
00:35:00.473 : en:Chapter 08
00:40:00.439 : en:Chapter 09
00:44:59.613 : en:Chapter 10
00:49:59.746 : en:Chapter 11
00:54:59.713 : en:Chapter 12
01:00:00.471 : en:Chapter 13
01:05:00.062 : en:Chapter 14
01:09:59.862 : en:Chapter 15
01:15:00.120 : en:Chapter 16
01:19:59.836 : en:Chapter 17
01:25:00.553 : en:Chapter 18
01:29:59.811 : en:Chapter 19
01:35:00.111 : en:Chapter 20
01:39:59.952 : en:Chapter 21
01:45:00.210 : en:Chapter 22
01:50:00.385 : en:Chapter 23
01:55:00.184 : en:Chapter 24
01:59:59.734 : en:Chapter 25
02:04:59.992 : en:Chapter 26
02:09:59.750 : en:Chapter 27
02:15:00.008 : en:Chapter 28
02:20:00.308 : en:Chapter 29
02:24:59.607 : en:Chapter 30
02:30:00.282 : en:Chapter 31
02:35:00.291 : en:Chapter 32
02:39:59.631 : en:Chapter 33
02:44:59.764 : en:Chapter 34
02:50:00.023 : en:Chapter 35

pb.wtf



28-11-2019 20:33  

Отключить всю рекламу на сайте

18-11-2018 14:31 Бездна Скачать торрент  

Топик был перенесен из форума Оформление раздач (Кино, Видео и ТВ) в форум Фильмы (WEB-DL 720p, 1080p)


-Lexx-pb.wtf



    Дорогой пользователь! Огромная просьба, поблагодарите релизера, оцените раздачу и оставьте свои комментарий, если Вы скачали Бездна через торрент бесплатно! Внесите свою лепту в развитие PiratBit!
    Комментировать посты могут только пользователи прошедшие не сложную регистрацию
    Показать сообщения:    

    Бездна через торрент
    Скачать бесплатно Бездна
    Бездна скачать торрент
    Бездна смотреть онлайн
    Cкачать фильм Бездна бесплатно
    Бездна скачать торрент в хорошем качестве
    Бездна смотреть онлайн бесплатно в хорошем качестве


    Вы не можете начинать темы
    Вы не можете отвечать на сообщения
    Вы не можете редактировать свои сообщения
    Вы не можете удалять свои сообщения
    Вы не можете голосовать в опросах
    Вы не можете прикреплять файлы к сообщениям
    Вы можете скачивать файлы