Ссылка на приватное зеркало нашего сайта всего за 1$. Внимание количество ограничено!!!

2 сезон

iTunes

1 сезон

1

2 сезон

2 сезон

iTunes

1 сезон

RePack

30

Новинка

ВАЖНО

ИГРА 18+

pack

RePack

MK11
pack

Забери бонус

RePack

jed

!!Акция!!

Alien_Rage

RePack

fifa19

RePack

Assassins Creed: Odyssey

RePack

NEED FOR SPEED™ PAYBACK

4 сезон

9 сезон

Бесстыжие 9 сезон

Все сериалы

все сериалы на PB.wtf

RePack

FAR CRY 5
  

Лассо / Lasso (Ивэн Сесил / Evan Cecil) [2018, ужасы, триллер, WEB-DLRip-AVC] DVO [HiWay Grope] pb.wtf

Лассо через торрент pb.wtf

Раздают: 1 [ 0 KB/s ]
Размер: 1.51 GB | Добавлен: 2 года назад | Торрент скачан:67 раз
Скачать  

18-11-2018 14:00 Лассо Скачать торрент  

Лассо
Lasso

«One hell of a rodeo»

Страна: США
Жанр: ужасы, триллер
Год выпуска: 2018
Продолжительность: 01:37:04

Перевод: Любительский (двухголосый, закадровый) [HiWay Grope]
Субтитры: нет
Оригинальная аудиодорожка: английский

Режиссер: Ивэн Сесил / Evan Cecil

В ролях: Шон Патрик Флэнери, Линдси Морган, Эндрю Джейкобс, Карен Грассл, Томас Кокениас, Бенедита Перейра, Трэвис Росс, Морган Бенуа, Тим Лайчик, Моника Брикка, Джуди Серда

Описание:
Туристическая группа пожилых людей приезжает на родео в американскую глубинку и подвергается нападению местных ковбоев, ополоумевших от употребления ветеринарных стероидов.



Релиз:

Автор рипа: stalkerok
Без рекламы!

Сэмпл

Качество видео: WEB-DLRip-AVC [Lasso.2018.1080p.WEB-DL.H264.AC3-EVO]
Формат видео: MKV
Видео кодек: AVC
Аудио кодек: AC3
Видео: AVC, 1450 Кбит/сек, 1060x440 (2.40:1), 23,976 кадр/сек
Аудио №1: AC3, 384 Кбит/сек, 48 КГц, 5.1 - русский
Аудио №2: AC3, 384 Кбит/сек, 48 КГц, 5.1 - английский
Навигация по главам: есть
---[Information] [18.11.2018 16:33:34] x264 [info]: frame I:1254 Avg QP:16.60 size: 39073
---[Information] [18.11.2018 16:33:34] x264 [info]: frame P:34766 Avg QP:17.96 size: 15238
---[Information] [18.11.2018 16:33:34] x264 [info]: frame B:103619 Avg QP:20.65 size: 4603

General
Unique ID : 184633554361870227239797063966332376176 (0x8AE7210D3FCE8C9F3CFFF73ECCBD5470)
Complete name : O:\Temp\Lasso\Lasso.2018.WEB-DLRip.x264.Rus.Eng.stalkerok.New-Team.mkv
Format : Matroska
Format version : Version 4 / Version 2
File size : 1.51 GiB
Duration : 1 h 37 min
Overall bit rate : 2 220 kb/s
Movie name : Lasso (2018) | Rip by stalkerok
Encoded date : UTC 2018-11-18 13:37:41
Writing application : mkvmerge v28.2.0 ('The Awakening') 64-bit
Writing library : libebml v1.3.6 + libmatroska v1.4.9

Video
ID : 1
Format : AVC
Format/Info : Advanced Video Codec
Format profile : High@L4.1
Format settings, CABAC : Yes
Format settings, ReFrames : 12 frames
Codec ID : V_MPEG4/ISO/AVC
Duration : 1 h 37 min
Bit rate : 1 450 kb/s
Width : 1 060 pixels
Height : 440 pixels
Display aspect ratio : 2.40:1
Frame rate mode : Constant
Frame rate : 23.976 FPS
Color space : YUV
Chroma subsampling : 4:2:0
Bit depth : 8 bits
Scan type : Progressive
Bits/(Pixel*Frame) : 0.130
Stream size : 1 007 MiB (65%)
Title : Lasso (2018) | Rip by stalkerok
Writing library : x264 core 157 r2932 303c484
Encoding settings : cabac=1 / ref=12 / deblock=1:-3:-2 / analyse=0x3:0x133 / me=umh / subme=10 / psy=1 / psy_rd=1.00:0.00 / mixed_ref=1 / me_range=32 / chroma_me=1 / trellis=2 / 8x8dct=1 / cqm=0 / deadzone=21,11 / fast_pskip=0 / chroma_qp_offset=-2 / threads=12 / lookahead_threads=3 / sliced_threads=0 / nr=0 / decimate=1 / interlaced=0 / bluray_compat=0 / constrained_intra=0 / bframes=14 / b_pyramid=2 / b_adapt=2 / b_bias=0 / direct=3 / weightb=1 / open_gop=0 / weightp=2 / keyint=240 / keyint_min=23 / scenecut=40 / intra_refresh=0 / rc_lookahead=60 / rc=crf / mbtree=0 / crf=19.6 / qcomp=0.65 / qpmin=0 / qpmax=69 / qpstep=4 / vbv_maxrate=50000 / vbv_bufsize=62500 / crf_max=0.0 / nal_hrd=none / filler=0 / ip_ratio=1.40 / pb_ratio=1.30 / aq=3:0.80
Default : Yes
Forced : No

Audio #1
ID : 2
Format : AC-3
Format/Info : Audio Coding 3
Mode extension : CM (complete main)
Format settings, Endianness : Big
Codec ID : A_AC3
Duration : 1 h 37 min
Bit rate mode : Constant
Bit rate : 384 kb/s
Channel(s) : 6 channels
Channel positions : Front: L C R, Side: L R, LFE
Sampling rate : 48.0 kHz
Frame rate : 31.250 FPS (1536 spf)
Compression mode : Lossy
Stream size : 267 MiB (17%)
Title : HiWayGrope
Language : Russian
Default : Yes
Forced : No

Audio #2
ID : 3
Format : AC-3
Format/Info : Audio Coding 3
Mode extension : CM (complete main)
Format settings, Endianness : Big
Codec ID : A_AC3
Duration : 1 h 37 min
Bit rate mode : Constant
Bit rate : 384 kb/s
Channel(s) : 6 channels
Channel positions : Front: L C R, Side: L R, LFE
Sampling rate : 48.0 kHz
Frame rate : 31.250 FPS (1536 spf)
Compression mode : Lossy
Stream size : 267 MiB (17%)
Language : English
Default : No
Forced : No

Menu
00:00:00.000 : en:1
00:02:05.000 : en:2
00:13:56.000 : en:3
00:22:35.000 : en:4
00:33:53.000 : en:5
00:42:25.000 : en:6
00:53:20.000 : en:7
01:04:12.000 : en:8
01:14:27.000 : en:9
01:23:50.000 : en:10
01:32:36.000 : en:11
pb.wtf



Скачать Лассо через торрент http://i6.imageban.ru/out/2017/09/18/2ff75c0c358795c5946784cc1680714d.png Скачать фильм Лассо через торрент бесплантно в хорошем качестве Описание:Туристическая группа пожилых людей приезжает на родео в американскую глубинку и подвергается нападению местных ковбоев, ... 10 10 4
Info! Золотая раздача, скачанное не засчитывается.
Торрент: Зарегистрирован [2018-11-18 14:00] · скачан: 67 раз
Статус: T временная
Размер: 1.51 GB
Как cкачать? Как скачать Лассо через торрент | qTorrent

% Раздел Тема Автор DL S | L
Зарубежные сериалы [ 25.2 GB ] Тед Лассо / Ted Lasso / Сезон: 1 / Серии: 1-10 из 10 [2020 WEB-DL 1080p] DUB [Пифагор] bober100 Скачать
2 | 1
Зарубежные сериалы [ 4.82 GB ] Тед Лассо / Ted Lasso / Сезон: 1 / Серии: 1-10 из 10 [2020 WEB-DLRip] [MVO] killermax2013 Скачать
3 | 0
Зарубежные сериалы [ 26.74 GB ] Тед Лассо / Ted Lasso / Сезон: 1 / Серии: 1-10 из 10 [2020 Спорт WEB-DL 1080p] 2x[MVO] + [DVO] killermax2013 Скачать
1 | 0
T Фильмы (мультфильмы) cо спонсором показа (Новинки AVI/MKV) [ 3.73 GB ] Лассо / Lasso [2018 WEB-DL 720p] MVO ["Синема УС"] bober100 Скачать
1 | 0
T Фильмы (WEB-DL 720p, 1080p) [ 3.63 GB ] Лассо / Lasso [2018 WEB-DL 1080p] DVO [HiWay Grope] sokol_ok Скачать
2 | 0
T Фильмы (мультфильмы) cо спонсором показа (Новинки AVI/MKV) [ 1.37 GB ] Лассо / Lasso [2018 WEB-DLRip] MVO ["Синема УС"] bober100 Скачать
1 | 0

28-11-2019 20:33  

Отключить всю рекламу на сайте

    Дорогой пользователь! Огромная просьба, поблагодарите релизера, оцените раздачу и оставьте свои комментарий, если Вы скачали Лассо через торрент бесплатно! Внесите свою лепту в развитие PiratBit!
    Комментировать посты могут только пользователи прошедшие не сложную регистрацию
    Показать сообщения:    

    Лассо через торрент
    Скачать бесплатно Лассо
    Лассо скачать торрент
    Лассо смотреть онлайн
    Cкачать фильм Лассо бесплатно
    Лассо скачать торрент в хорошем качестве
    Лассо смотреть онлайн бесплатно в хорошем качестве


    Вы не можете начинать темы
    Вы не можете отвечать на сообщения
    Вы не можете редактировать свои сообщения
    Вы не можете удалять свои сообщения
    Вы не можете голосовать в опросах
    Вы не можете прикреплять файлы к сообщениям
    Вы можете скачивать файлы