Ссылка на приватное зеркало всего за 1$. Внимание количество ограничено!!!

OK

1+1

iTunes

мы

OK

1

WEB-DLRip

Джокер

Пифагор

Ведьмак / The Witcher сериал

iTunes

ПШазам

ОК

Оно 2

iTunes

30
pack

Вам бонус

ВАЖНО

!!Акция!!

Alien_RageХит недели

RePack

Resident Evil 21

ИГРА 18+

pack

RePack

jed

RePack

fifa19

RePack

Assassins Creed: Odyssey

RePack

NEED FOR SPEED™ PAYBACK

4 сезон

9 сезон

Бесстыжие 9 сезон

Все сериалы

все сериалы на PB.wtf

RePack

FAR CRY 5
  

Ферма / The Farm (Ганс Стьернсвард) [2018, Ужасы, WEB-DL 720p] MVO ["Синема УС"] pb.wtf

Ферма через торрент pb.wtf

Размер: 3.07 GB | Добавлен: 1 год 2 мес. назад | Торрент скачан:66 раз
Скачать  

18-11-2018 17:37 Ферма Скачать торрент  

Ферма / The FarmГод выпуска: 2018
Страна: США
Жанр: Ужасы
Продолжительность: 01:22:46
Перевод: Любительский (многоголосый) | "Синема УС"
Субтитры: отсутствуют

Режиссер: Ганс Стьернсвард

rating

В ролях:

Нора Есаян, Алек Гейлорд, Кен Волок, Роб Тисдейл, Келли Мис, Дэвид Эйр, Джули Браун, Гаэль Кэррион, Иола Кора, Сандра Кру

Описание:

Молодая пара, проезжая очередной городок, решила заскочить в закусочную поесть бургеров и отдохнуть. В итоге их поездка обернулась кошмаром. Их похитили неизвестные, посадили в клетки и обращаются, как со скотом, в прямом смысле этого слова.

Качество: WEB-DL 720p
Формат: MKV

Видео: h.264, 4 931 kb/s, 1280x418
Аудио#1: Русский, (AC3, 2 ch, 384 Кбит/с)
скриншот  скриншот  скриншот  

Общее
Уникальный идентификатор : 232124853293721753450709007934974074204 (0xAEA19EDE4C1A71949DEF1D9D26781D5C)
Полное имя : D:\The.Farm.2O18.P.WEB-DL.72Op_KOSHARA.mkv
Формат : Matroska
Версия формата : Version 2
Размер файла : 3,07 Гбайт
Продолжительность : 1 ч. 22 м.
Режим общего битрейта : Переменный
Общий поток : 5317 Кбит/сек
Дата кодирования : UTC 2018-11-17 15:42:47
Программа кодирования : mkvmerge v8.3.0 ('Over the Horizon') 64bit
Библиотека кодирования : libebml v1.3.1 + libmatroska v1.4.2

Видео
Идентификатор : 1
Формат : AVC
Формат/Информация : Advanced Video Codec
Профиль формата : High@L4.1
Параметр CABAC формата : Да
Параметр RefFrames формата : 4 кадра
Идентификатор кодека : V_MPEG4/ISO/AVC
Продолжительность : 1 ч. 22 м.
Вид битрейта : Переменный
Битрейт : 4931 Кбит/сек
Максимальный битрейт : 5500 Кбит/сек
Ширина : 1280 пикселей
Высота : 418 пикселей
Соотношение сторон : 3,062
Режим частоты кадров : Постоянный
Частота кадров : 23,976 (24000/1001) кадра/сек
Стандарт вещания : Component
Цветовое пространство : YUV
Субдискретизация насыщенности : 4:2:0
Битовая глубина : 8 бит
Тип развёртки : Прогрессивная
Бит/(Пиксели*Кадры) : 0.376
Размер потока : 2,79 Гбайт (91%)
Default : Да
Forced : Нет
Цветовой диапазон : Limited
Основные цвета : BT.709
Характеристики трансфера : BT.709
Коэффициенты матрицы : BT.709

Аудио
Идентификатор : 2
Формат : AC-3
Формат/Информация : Audio Coding 3
Расширение режима : CM (complete main)
Параметр Endianness формата : Big
Идентификатор кодека : A_AC3
Продолжительность : 1 ч. 22 м.
Вид битрейта : Постоянный
Битрейт : 384 Кбит/сек
Каналы : 2 канала
Расположение каналов : Front: L R
Частота : 48,0 КГц
Частота кадров : 31,250 кадров/сек (1536 spf)
Метод сжатия : С потерями
Размер потока : 227 Мбайт (7%)
Default : Да
Forced : Нет

pb.wtf



Скачать Ферма через торрент https://b.radikal.ru/b04/1811/08/ac0abf2a59b2.jpg Скачать фильм Ферма через торрент бесплантно в хорошем качестве Описание: Молодая пара, проезжая очередной городок, решила заскочить в закусочную поесть бургеров и отдохнуть. В итоге их поездка ... 10 10 4
Торрент: Зарегистрирован [2018-11-18 17:37] · скачан: 66 раз
Статус: T временная
Размер: 3.07 GB
Как cкачать? Как скачать Ферма через торрент | qTorrent

% Раздел Тема Автор DL S | L
T Фильмы (мультфильмы) cо спонсором показа (Новинки AVI/MKV) [ 1.37 GB ] Ферма / The Farm [2018 WEB-DLRip] MVO ["Синема УС"] bober100 Скачать
1 | 0
Порно фильмы с русским переводом [ 1.57 GB ] Секс на ферме / Private Matador 13 - Cock O'Neal Sex on the Farm [2001 Feature. DVDRip одноголосый] Pir@tya2010 Скачать
2 | 0

28-11-2019 20:33  

Отключить всю рекламу на сайте

19-11-2018 14:05 Ферма Скачать торрент  

Это точно не порно?pb.wtf



    Дорогой пользователь! Огромная просьба, поблагодарите релизера, оцените раздачу и оставьте свои комментарий, если Вы скачали Ферма через торрент бесплатно! Внесите свою лепту в развитие PiratBit!
    Комментировать посты могут только пользователи прошедшие не сложную регистрацию
    Показать сообщения:    

    Ферма через торрент
    Скачать бесплатно Ферма
    Ферма скачать торрент
    Ферма смотреть онлайн
    Cкачать фильм Ферма бесплатно
    Ферма скачать торрент в хорошем качестве
    Ферма смотреть онлайн бесплатно в хорошем качестве


    Вы не можете начинать темы
    Вы не можете отвечать на сообщения
    Вы не можете редактировать свои сообщения
    Вы не можете удалять свои сообщения
    Вы не можете голосовать в опросах
    Вы не можете прикреплять файлы к сообщениям
    Вы можете скачивать файлы