Ссылка на приватное зеркало нашего сайта всего за 1$. Внимание количество ограничено!!!

2 сезон

iTunes

1 сезон

1

2 сезон

2 сезон

iTunes

1 сезон

RePack

30

Ultimate

ВАЖНО

ИГРА 18+

pack

RePack

MK11
pack

Забери бонус

RePack

jed

!!Акция!!

Alien_Rage

RePack

fifa19

RePack

Assassins Creed: Odyssey

RePack

NEED FOR SPEED™ PAYBACK

4 сезон

9 сезон

Бесстыжие 9 сезон

Все сериалы

все сериалы на PB.wtf

RePack

FAR CRY 5
  

Комната 104 / Room 104 / Сезон: 1 / Серии: 1-12 из 12 (Сара Адина, Дэйна Хэнсон) [2017, Триллер, драма, фантастика, WEBRip 720p] MVO [Good People] pb.wtf

Комната 104 через торрент pb.wtf

Размер: 7.24 GB | Добавлен: 2 года назад | Торрент скачан:20 раз
Скачать  

19-11-2018 01:32 Комната 104 Скачать торрент  

Комната 104 / Room 104 Оригинальное название: Room 104
Русское название: Комната 104
Год выпуска: 2017
Страна: США
Жанр: Триллер, драма
Продолжительность: ~ 00:23:00
Перевод: Профессиональный (многоголосый закадровый) | Студия Good People присутствует процент ненормативной лексики
Субтитры: английские

Режиссёр: Сара Адина, Дэйна Хэнсон

rating

В ролях:

Дави Блу Басич, Спенсер Гаррет, Каран Сони, Хьюго Армстронг, Мэттью Флинн Беллоуз, Дж. Клод Диринг, Джей Дюпласс и другие

Описание:

Сюжет истории вращается вокруг одной небольшой комнаты под номер 104 в довольно милой и убранной гостинице. За столько лет существования заведения, эта комната увидела и стерпела многое. Ее стены слышали припадки радости, вопли гнева, слезы и даже угрозы. Кого только судьба не приносила в апартаменты 104. Здесь неоднократно появлялись богачи, сорящие деньгами во все стороны, а также порою, но все же реже заглядывали и бедняки. Сегодня у них еще были деньги на оплату номера, а завтра карманы пусты и вновь улица, холод, безразличие прохожих. Но все это для комнаты пустяки, к такому ее стены привыкли, но помнят они более страшные дела, угнетающие и пугающие, некогда даже осквернившие обитель человеческой кровью. Это не прошло бесследно и печать тех страшных дел, будто клеймо впечатано в номер 104.

Качество: WEBRip 720p
Формат: MKV
Видео кодек: AVC
Аудио кодек: AC3, E-AC3

Видео: H264, 1280x720 (16:9), 23.976 fps, ~2100kbps, ~0.099 bit/pixel
Аудио 1: Dolby AC3 48000Hz 6ch 640Kbps Русский
Аудио 2: Dolby E-AC3 48000Hz 6ch 640Kbps Оригинал


Реклама: Присутствует звуковая (два раза в начале и конце по 12 сек.)
General
Unique ID                   : 244147813209120982381198699698608620701 (0xB7AD288EF95AE02ABC6D9EBEF21F449D)
Complete name               : Room 104. Season 1 (WEBRip l 720p l Good People)\Room.104.S01E01.Ralphie.720p.AMZN.WEB-DL.DDP5.1.H.264-GoodPeople.mkv
Format                      : Matroska
Format version              : Version 2
File size                   : 642 MiB
Duration                    : 25mn 24s
Overall bit rate mode       : Variable
Overall bit rate            : 3 533 Kbps
Encoded date                : UTC 2017-08-14 18:21:45
Writing application         : mkvmerge v5.4.0 ('Piper') built on Mar 10 2012 13:34:39
Writing library             : libebml v1.2.3 + libmatroska v1.3.0
DURATION                    : 00:25:13.458000000
NUMBER_OF_FRAMES            : 361
NUMBER_OF_BYTES             : 10534
_STATISTICS_WRITING_APP     : mkvmerge v13.0.0 ('The Juggler') 64bit
_STATISTICS_WRITING_DATE_UT : 2017-07-29 14:18:41
_STATISTICS_TAGS            : BPS DURATION NUMBER_OF_FRAMES NUMBER_OF_BYTES

Video
ID                          : 1
Format                      : AVC
Format/Info                 : Advanced Video Codec
Format profile              : High@L3.1
Format settings, CABAC      : Yes
Format settings, ReFrames   : 5 frames
Codec ID                    : V_MPEG4/ISO/AVC
Duration                    : 25mn 24s
Bit rate mode               : Variable
Bit rate                    : 2 182 Kbps
Maximum bit rate            : 4 500 Kbps
Width                       : 1 280 pixels
Height                      : 720 pixels
Display aspect ratio        : 16:9
Frame rate mode             : Constant
Frame rate                  : 23.976 fps
Color space                 : YUV
Chroma subsampling          : 4:2:0
Bit depth                   : 8 bits
Scan type                   : Progressive
Bits/(Pixel*Frame)          : 0.099
Stream size                 : 397 MiB (62%)
Default                     : Yes
Forced                      : No
Color range                 : Limited
Color primaries             : BT.709
Transfer characteristics    : BT.709
Matrix coefficients         : BT.709

Audio #1
ID                          : 2
Format                      : AC-3
Format/Info                 : Audio Coding 3
Mode extension              : CM (complete main)
Format settings, Endianness : Big
Codec ID                    : A_AC3
Duration                    : 25mn 24s
Bit rate mode               : Constant
Bit rate                    : 640 Kbps
Channel(s)                  : 6 channels
Channel positions           : Front: L C R, Side: L R, LFE
Sampling rate               : 48.0 KHz
Compression mode            : Lossy
Stream size                 : 116 MiB (18%)
Language                    : Russian
Default                     : Yes
Forced                      : No

Audio #2
ID                          : 3
Format                      : E-AC-3
Format/Info                 : Audio Coding 3
Format settings, Endianness : Big
Codec ID                    : A_EAC3
Duration                    : 25mn 24s
Bit rate mode               : Constant
Bit rate                    : 640 Kbps
Channel(s)                  : 6 channels
Channel positions           : Front: L C R, Side: L R, LFE
Sampling rate               : 48.0 KHz
Compression mode            : Lossy
Stream size                 : 116 MiB (18%)
Language                    : English
Default                     : No
Forced                      : No

Text
ID                          : 4
Format                      : UTF-8
Codec ID                    : S_TEXT/UTF8
Codec ID/Info               : UTF-8 Plain Text
Language                    : English
Default                     : No
Forced                      : No
скриншот  скриншот  скриншот  
pb.wtf



Скачать Комната 104 через торрент http://img11.lostpic.net/2018/11/19/7bd64cae7b40ee43f8f497258b0f45e0.jpg Скачать фильм Комната 104 через торрент бесплантно в хорошем качестве Описание: Сюжет истории вращается вокруг одной небольшой комнаты под номер 104 в довольно милой и убранной гостинице. За столько лет ... 9.7 10 3
Торрент: Зарегистрирован [2018-11-19 01:32] · скачан: 20 раз
Статус: √ проверено
Размер: 7.24 GB
Как cкачать? Как скачать Комната 104 через торрент | qTorrent

% Раздел Тема Автор DL S | L
Зарубежные сериалы [ 3.79 GB ] Комната 104 / Room 104 / Сезон: 2 / Серии: 1-12 из 12 [2018 WEB-DLRip] MVO [Good People] bober100 Скачать
1 | 0
Зарубежные сериалы [ 3.79 GB ] Комната 104 / Room 104 / Сезон: 2 / Серии: 1-12 из 12 [2018 WEB-DLRip] MVO [Jaskier] bober100 Скачать
1 | 0
Зарубежные сериалы [ 13.86 GB ] Комната 104 / Room 104 / Сезон: 2 / Серии: 1-12 из 12 [2018 WEB-DL 1080p] MVO [Jaskier] bober100 Скачать
1 | 0
Зарубежные сериалы [ 3.64 GB ] Комната 104 / Room 104 / Сезон: 1 / Серии: 1-12 из 12 [2017 WEB-DLRip] MVO [Good People] bober100 Скачать
1 | 0
Зарубежные сериалы [ 5.44 GB ] Комната 104 / Room 104 / Сезон: 1 / Серии 1-12 из 13 [2017 WEBRip-AVC] MVO [BaibaKo] GEKADOL Скачать
1 | 0
Зарубежные сериалы [ 3.88 GB ] Комната 104 / Room 104 / Сезон: 1 / Серии 1-12 из 12 [2017 WEB-DLRip] MVO [Амедиа] GEKADOL Скачать
1 | 0
Зарубежные сериалы [ 6.11 GB ] Комната 104 / Room 104 / Сезон: 1 / Серии 1-12 из 13 [2017 WEB-DL 720p MVO [Амедиа] GEKADOL Скачать
1 | 0

28-11-2019 20:33  

Отключить всю рекламу на сайте

    Дорогой пользователь! Огромная просьба, поблагодарите релизера, оцените раздачу и оставьте свои комментарий, если Вы скачали Комната 104 через торрент бесплатно! Внесите свою лепту в развитие PiratBit!
    Комментировать посты могут только пользователи прошедшие не сложную регистрацию
    Показать сообщения:    

    Комната 104 через торрент
    Скачать бесплатно Комната 104
    Комната 104 скачать торрент
    Комната 104 смотреть онлайн
    Cкачать фильм Комната 104 бесплатно
    Комната 104 скачать торрент в хорошем качестве
    Комната 104 смотреть онлайн бесплатно в хорошем качестве


    Вы не можете начинать темы
    Вы не можете отвечать на сообщения
    Вы не можете редактировать свои сообщения
    Вы не можете удалять свои сообщения
    Вы не можете голосовать в опросах
    Вы не можете прикреплять файлы к сообщениям
    Вы можете скачивать файлы