Ссылка на приватное зеркало всего за 1$. Внимание количество ограничено!!!

OK

1+1

iTunes

мы

OK

1

WEB-DLRip

Джокер

Пифагор

Ведьмак / The Witcher сериал

iTunes

ПШазам

ОК

Оно 2

iTunes

30
pack

Вам бонус

ВАЖНО

!!Акция!!

Alien_RageХит недели

RePack

Resident Evil 21

ИГРА 18+

pack

RePack

jed

RePack

fifa19

RePack

Assassins Creed: Odyssey

RePack

NEED FOR SPEED™ PAYBACK

4 сезон

9 сезон

Бесстыжие 9 сезон

Все сериалы

все сериалы на PB.wtf

RePack

FAR CRY 5
  

Главное услышать / Never Heard (Джош Абрахам Веббер) [2018, Драма, семейный, WEB-DL 720p] MVO ["Синема УС"] pb.wtf

Главное услышать через торрент pb.wtf

Размер: 3.36 GB | Добавлен: 1 год 2 мес. назад | Торрент скачан:8 раз
Скачать  

19-11-2018 06:52 Главное услышать Скачать торрент  

Главное услышать / Never HeardГод выпуска: 2018
Страна: США
Жанр: Драма, семейный
Продолжительность: 01:30:05
Перевод: Любительский (многоголосый) | "Синема УС"
Субтитры: отсутствуют

Режиссер: Джош Абрахам Веббер

rating

В ролях:

Дэвид Баннер, Робин Гивенс, Лил Ромео, Карруче Тран, Брайан Дж. Уайт, Дориен Уилсон, Карен Эберкромби, Дижон Тальтон, Кэнди Баррус

Описание:

Аарона Девиса обвинили и лишили свободы за убийство, которое, как он утверждает, не совершал. Его сын, Джейлен, вынужден расти на улицах Лос-Анджелеса без наставлений отца. Его воспитывают мать и бабушка. После того, как его друг Дигги связывается с крупнейшими наркодиллерами и остается должен им, жизнь Джейлена оказывается в опасности. Но все меняется, когда Аарон вспоминает о вере в Бога и в молитве просит Его о помощи. Сможет ли Аарон доказать свою невиновность и спасти жизнь сына, пока еще не поздно?

Качество: WEB-DL 720p
Формат: MKV

Видео: 4 952 Кбит/с, 1280x532
Аудио#1: Русский, (AC3, 2 ch, 384 Кбит/с)
скриншот  скриншот  скриншот  

Общее
Уникальный идентификатор : 227878356802816966159220875613965215683 (0xAB6FC66D3E738A0984D5FCEB64CD67C3)
Полное имя : D:\Never.Heard.2018.P.WEB-DL.72Op.mkv
Формат : Matroska
Версия формата : Version 2
Размер файла : 3,36 Гбайт
Продолжительность : 1 ч. 30 м.
Режим общего битрейта : Переменный
Общий поток : 5338 Кбит/сек
Дата кодирования : UTC 2018-11-18 12:00:57
Программа кодирования : mkvmerge v8.3.0 ('Over the Horizon') 64bit
Библиотека кодирования : libebml v1.3.1 + libmatroska v1.4.2

Видео
Идентификатор : 1
Формат : AVC
Формат/Информация : Advanced Video Codec
Профиль формата : High@L4.1
Параметр CABAC формата : Да
Параметр RefFrames формата : 4 кадра
Идентификатор кодека : V_MPEG4/ISO/AVC
Продолжительность : 1 ч. 30 м.
Вид битрейта : Переменный
Битрейт : 4952 Кбит/сек
Максимальный битрейт : 5500 Кбит/сек
Ширина : 1280 пикселей
Высота : 532 пикселя
Соотношение сторон : 2,40:1
Режим частоты кадров : Постоянный
Частота кадров : 23,976 (24000/1001) кадра/сек
Стандарт вещания : Component
Цветовое пространство : YUV
Субдискретизация насыщенности : 4:2:0
Битовая глубина : 8 бит
Тип развёртки : Прогрессивная
Бит/(Пиксели*Кадры) : 0.297
Размер потока : 3,05 Гбайт (91%)
Default : Да
Forced : Нет
Цветовой диапазон : Limited
Основные цвета : BT.709
Характеристики трансфера : BT.709
Коэффициенты матрицы : BT.709

Аудио
Идентификатор : 2
Формат : AC-3
Формат/Информация : Audio Coding 3
Расширение режима : CM (complete main)
Параметр Endianness формата : Big
Идентификатор кодека : A_AC3
Продолжительность : 1 ч. 30 м.
Вид битрейта : Постоянный
Битрейт : 384 Кбит/сек
Каналы : 2 канала
Расположение каналов : Front: L R
Частота : 48,0 КГц
Частота кадров : 31,250 кадров/сек (1536 spf)
Метод сжатия : С потерями
Размер потока : 247 Мбайт (7%)
Default : Да
Forced : Нет

pb.wtf



Скачать Главное услышать через торрент https://b.radikal.ru/b02/1811/7b/8ebf80acebc5.jpg Скачать фильм Главное услышать через торрент бесплантно в хорошем качестве Описание: Аарона Девиса обвинили и лишили свободы за убийство, которое, как он утверждает, не совершал. Его сын, Джейлен, вынужден расти на ... 10 10 2
Торрент: Зарегистрирован [2018-11-19 06:52] · скачан: 8 раз
Статус: T временная
Размер: 3.36 GB
Как cкачать? Как скачать Главное услышать через торрент | qTorrent

% Раздел Тема Автор DL S | L
T Фильмы (мультфильмы) cо спонсором показа (Новинки AVI/MKV) [ 1.37 GB ] Главное услышать / Never Heard [2018 WEB-DLRip] MVO ["Синема УС"] bober100 Скачать
1 | 0

28-11-2019 20:33  

Отключить всю рекламу на сайте

    Дорогой пользователь! Огромная просьба, поблагодарите релизера, оцените раздачу и оставьте свои комментарий, если Вы скачали Главное услышать через торрент бесплатно! Внесите свою лепту в развитие PiratBit!
    Комментировать посты могут только пользователи прошедшие не сложную регистрацию
    Показать сообщения:    

    Главное услышать через торрент
    Скачать бесплатно Главное услышать
    Главное услышать скачать торрент
    Главное услышать смотреть онлайн
    Cкачать фильм Главное услышать бесплатно
    Главное услышать скачать торрент в хорошем качестве
    Главное услышать смотреть онлайн бесплатно в хорошем качестве


    Вы не можете начинать темы
    Вы не можете отвечать на сообщения
    Вы не можете редактировать свои сообщения
    Вы не можете удалять свои сообщения
    Вы не можете голосовать в опросах
    Вы не можете прикреплять файлы к сообщениям
    Вы можете скачивать файлы