Ссылка на приватное зеркало нашего сайта всего за 1$. Внимание количество ограничено!!!

2 сезон

iTunes

1 сезон

1

iTunes

iTunes

iTunes

1 сезон

RePack

30

ИГРА 18+

pack

ВАЖНО

!!Акция!!

Alien_RageХит недели

RePack

MK11
pack

Забери бонус

RePack

jed

!!Акция!!

Alien_Rage

RePack

fifa19

RePack

Assassins Creed: Odyssey

RePack

NEED FOR SPEED™ PAYBACK

4 сезон

9 сезон

Бесстыжие 9 сезон

Все сериалы

все сериалы на PB.wtf

RePack

FAR CRY 5
  

Возвращение к себе / Серии: 1-4 из 4 (Ева Стрельникова) [2018, Мелодрама, криминал, WEBRip] pb.wtf

Возвращение к себе через торрент pb.wtf

Размер: 2.44 GB | Добавлен: 1 год 11 мес. назад | Торрент скачан:77 раз
Скачать  

19-11-2018 11:51 Возвращение к себе Скачать торрент  

Возвращение к себеГод выпуска: 2018
Страна: Россия, Украина
Жанр: Мелодрама, криминал
Продолжительность: ~ 00:47:00 серия
Субтитры: отсутствуют

Режиссер: Ева Стрельникова

В ролях:

Татьяна Лялина, Дмитрий Сова, Игорь Иванов, Олег Масленников, Александр Крючков, Евгения Мягонькая, Ли Берлинская, Олег Москаленко, Ирина Тамим, Елена Лаврова, Сергей Радченко

Описание:

После победы в конкурсе красоты "Мисс Счастливое" Лену начинает преследовать маньяк. Он шлет ей письма с угрозами, звонит, нападает на темной улице и насилует девушку. Полиция разводит руками. Лена переезжает в другой город, но призраки прошлого продолжают ее преследовать. Девушке предстоит встретиться со своим страхом лицом к лицу и победить его..

Качество: WEBRip
Формат: AVI

Видео: XviD, ~ 1860 Кбит/с, 720x400
Аудио: AC3, 2 ch, 192 Кбит/с
скриншот  скриншот  скриншот  скриншот  скриншот  

Общее
Полное имя : D:\Возвращение к себе.(2018).WEBRip.by.Nicodem.Files-x\01.Возвращение к себе.(2018).WEBRip.by.Nicodem.Files-x.avi
Формат : AVI
Формат/Информация : Audio Video Interleave
Размер файла : 698 Мбайт
Продолжительность : 47 м. 21 с.
Общий поток : 2062 Кбит/сек
Программа кодирования : VirtualDubMod 1.5.10.3 | www.virtualdub-fr.org || (build 2550/release)
Библиотека кодирования : VirtualDubMod build 2550/release

Видео
Идентификатор : 0
Формат : MPEG-4 Visual
Профиль формата : Advanced Simple@L5
Параметр BVOP формата : 1
Параметр QPel формата : Нет
Параметр GMC формата : Без точки перехода
Параметр матрицы формата : Выборочная
Идентификатор кодека : XVID
Идентификатор кодека/Подсказка : XviD
Продолжительность : 47 м. 21 с.
Битрейт : 1860 Кбит/сек
Ширина : 720 пикселей
Высота : 400 пикселей
Соотношение сторон : 16:9
Частота кадров : 25,000 кадров/сек
Цветовое пространство : YUV
Субдискретизация насыщенности : 4:2:0
Битовая глубина : 8 бит
Тип развёртки : Прогрессивная
Метод сжатия : С потерями
Бит/(Пиксели*Кадры) : 0.258
Размер потока : 630 Мбайт (90%)
Библиотека кодирования : XviD 73

Аудио
Идентификатор : 1
Формат : AC-3
Формат/Информация : Audio Coding 3
Расширение режима : CM (complete main)
Параметр Endianness формата : Big
Идентификатор кодека : 2000
Продолжительность : 47 м. 21 с.
Вид битрейта : Постоянный
Битрейт : 192 Кбит/сек
Каналы : 2 канала
Расположение каналов : Front: L R
Частота : 48,0 КГц
Частота кадров : 31,250 кадров/сек (1536 spf)
Метод сжатия : С потерями
Размер потока : 65,0 Мбайт (9%)
Выравнивание : Разделение по промежуткам
Продолжительность промежутка : 40 мс. (1,00 видеокадр)
Время предзагрузки промежутка : 500 мс.

pb.wtf



Скачать Возвращение к себе через торрент http://i97.fastpic.ru/big/2018/1118/50/b5aefe69af99df3f32badbbb99a1b550.jpg Скачать фильм Возвращение к себе через торрент бесплантно в хорошем качестве Описание: После победы в конкурсе красоты "Мисс Счастливое" Лену начинает преследовать маньяк. Он шлет ей письма с угрозами, звонит, ... 10 10 7
Торрент: Зарегистрирован [2018-11-19 11:51] · скачан: 77 раз
Статус: √ проверено
Размер: 2.44 GB
Как cкачать? Как скачать Возвращение к себе через торрент | qTorrent

28-11-2019 20:33  

Отключить всю рекламу на сайте

    Дорогой пользователь! Огромная просьба, поблагодарите релизера, оцените раздачу и оставьте свои комментарий, если Вы скачали Возвращение к себе через торрент бесплатно! Внесите свою лепту в развитие PiratBit!
    Комментировать посты могут только пользователи прошедшие не сложную регистрацию
    Показать сообщения:    

    Возвращение к себе через торрент
    Скачать бесплатно Возвращение к себе
    Возвращение к себе скачать торрент
    Возвращение к себе смотреть онлайн
    Cкачать фильм Возвращение к себе бесплатно
    Возвращение к себе скачать торрент в хорошем качестве
    Возвращение к себе смотреть онлайн бесплатно в хорошем качестве


    Вы не можете начинать темы
    Вы не можете отвечать на сообщения
    Вы не можете редактировать свои сообщения
    Вы не можете удалять свои сообщения
    Вы не можете голосовать в опросах
    Вы не можете прикреплять файлы к сообщениям
    Вы можете скачивать файлы