Marvel's Avengers Deluxe Edition (супер цена) 159р. Внимание количество ограничено!!!

2 сезон

iTunes

iTunes

1

iTunes

iTunes

iTunes

WEBRip

iTunes

30
pack

Новость дня

ВАЖНО

!!Акция!!

Alien_RageХит недели

RePack

Horizon Zero Dawn

ИГРА 18+

pack

RePack

jed

!!Акция!!

Alien_Rage

RePack

fifa19

RePack

Assassins Creed: Odyssey

RePack

NEED FOR SPEED™ PAYBACK

4 сезон

9 сезон

Бесстыжие 9 сезон

Все сериалы

все сериалы на PB.wtf

RePack

FAR CRY 5
  

Перехитрить палача / Cheat the Hangman (Кристофер Форбс) [2018 г., Драма, криминал, WEB-DLRip, Любительский (многоголосый) (Синема УС)] pb.wtf

Перехитрить палача через торрент pb.wtf

Размер: 1.31 GB | Добавлен: 1 год 9 мес. назад | Торрент скачан:70 раз
Скачать  

19-11-2018 15:16 Перехитрить палача Скачать торрент  

Перехитрить палача / Cheat the Hangman
Год выпуска: 2018
Страна: США / ITN Films
Жанр: Драма, криминал
Продолжительность: 01:28:03
Перевод: Любительский (многоголосый) (Синема УС)
Субтитры: Отсутствуют

Режиссер: Кристофер Форбс

rating

В ролях: Барри У. Джеральд мл., Катрин Джеральд, Джерри Чессер, Брэд Лиа, Дэн Бек, Стефен Гиллиам, Жезабель Анат, Рассел Добсон, Эрик Е. По, Кайла Коппа

Описание: После того как в перестрелке тринадцатилетний сын шерифа убивает преступника, застрелившего его отца, мальчика приговаривают к казни через повешение. В результате вмешательства губернатора штата смертную казнь заменяют двадцатью годами в каторжной тюрьме без возможности досрочного освобождения. И вот выйдя из тюрьмы Элайджа возвращается в родной город. Сможет ли он простить людей, сломавших ему жизнь, или жестоко отомстит обидчикам?

Доп. информация: Присутствуют вставки текстовой рекламы

Качество: WEB-DLRip
Формат: AVI
Видео кодек: XviD
Аудио кодек: AC3
Видео: XviD, 720x304, ~1727 Kbps
Аудио#1: AC-3, 2 ch, 384 Kbps
скриншот   скриншот   скриншот   скриншот  

Общее
Полное имя : C:\_\Перехитрить палача\Cheat the Hangman 2018 WEB-DLRip.avi
Формат : AVI
Формат/Информация : Audio Video Interleave
Профиль формата : OpenDML
Размер файла : 1,31 Гбайт
Продолжительность : 1 ч. 28 м.
Общий поток : 2124 Кбит/сек

Видео
Идентификатор : 0
Формат : MPEG-4 Visual
Профиль формата : Advanced Simple@L5
Параметр BVOP формата : 2
Параметр QPel формата : Нет
Параметр GMC формата : Без точки перехода
Параметр матрицы формата : Выборочная
Идентификатор кодека : XVID
Идентификатор кодека/Подсказка : XviD
Продолжительность : 1 ч. 28 м.
Битрейт : 1727 Кбит/сек
Ширина : 720 пикселей
Высота : 304 пикселя
Соотношение сторон : 2,35:1
Частота кадров : 23,976 (24000/1001) кадра/сек
Цветовое пространство : YUV
Субдискретизация насыщенности : 4:2:0
Битовая глубина : 8 бит
Тип развёртки : Прогрессивная
Метод сжатия : С потерями
Бит/(Пиксели*Кадры) : 0.329
Размер потока : 1,06 Гбайт (81%)
Библиотека кодирования : XviD 1.2.1 (UTC 2008-12-04)

Аудио
Идентификатор : 1
Формат : AC-3
Формат/Информация : Audio Coding 3
Расширение режима : CM (complete main)
Параметр Endianness формата : Big
Идентификатор кодека : 2000
Продолжительность : 1 ч. 28 м.
Вид битрейта : Постоянный
Битрейт : 384 Кбит/сек
Каналы : 2 канала
Расположение каналов : Front: L R
Частота : 48,0 КГц
Частота кадров : 31,250 кадров/сек (1536 spf)
Метод сжатия : С потерями
Размер потока : 242 Мбайт (18%)
Выравнивание : Соединение по промежуткам
Продолжительность промежутка : 32 мс. (0,77 видеокадр)

pb.wtf



Скачать Перехитрить палача через торрент http://pic1.kartinco.top/images/11/k6fja.jpg Скачать фильм Перехитрить палача через торрент бесплантно в хорошем качестве Описание: После того как в перестрелке тринадцатилетний сын шерифа убивает преступника, застрелившего его отца, мальчика приговаривают к ... 10 10 3
Info! Золотая раздача, скачанное не засчитывается.
Торрент: Зарегистрирован [2018-11-19 15:16] · скачан: 70 раз
Статус: T временная
Размер: 1.31 GB
Как cкачать? Как скачать Перехитрить палача через торрент | qTorrent

28-11-2019 20:33  

Отключить всю рекламу на сайте

    Дорогой пользователь! Огромная просьба, поблагодарите релизера, оцените раздачу и оставьте свои комментарий, если Вы скачали Перехитрить палача через торрент бесплатно! Внесите свою лепту в развитие PiratBit!
    Комментировать посты могут только пользователи прошедшие не сложную регистрацию
    Показать сообщения:    

    Перехитрить палача через торрент
    Скачать бесплатно Перехитрить палача
    Перехитрить палача скачать торрент
    Перехитрить палача смотреть онлайн
    Cкачать фильм Перехитрить палача бесплатно
    Перехитрить палача скачать торрент в хорошем качестве
    Перехитрить палача смотреть онлайн бесплатно в хорошем качестве


    Вы не можете начинать темы
    Вы не можете отвечать на сообщения
    Вы не можете редактировать свои сообщения
    Вы не можете удалять свои сообщения
    Вы не можете голосовать в опросах
    Вы не можете прикреплять файлы к сообщениям
    Вы можете скачивать файлы