Ссылка на приватное зеркало всего за 1$. Внимание количество ограничено!!!

OK

1+1

iTunes

мы

OK

1

WEB-DLRip

Джокер

Пифагор

Ведьмак / The Witcher сериал

iTunes

ПШазам

ОК

Оно 2

iTunes

30
pack

Вам бонус

ВАЖНО

!!Акция!!

Alien_RageХит недели

RePack

Resident Evil 21

ИГРА 18+

pack

RePack

jed

RePack

fifa19

RePack

Assassins Creed: Odyssey

RePack

NEED FOR SPEED™ PAYBACK

4 сезон

9 сезон

Бесстыжие 9 сезон

Все сериалы

все сериалы на PB.wtf

RePack

FAR CRY 5
  

Лучший день моей жизни / Here and Now (Фабьен Констант) [2018 г., Драма, мелодрама, музыка, WEB-DLRip, Любительский (многоголосый)(Синема УС)] pb.wtf

Лучший день моей жизни через торрент pb.wtf

Размер: 1.32 GB | Добавлен: 1 год 2 мес. назад | Торрент скачан:41 раз
Скачать  

19-11-2018 15:26 Лучший день моей жизни Скачать торрент  

Лучший день моей жизни / Here and Now
Год выпуска: 2018
Страна: США
Жанр: Драма, мелодрама, музыка
Продолжительность: 01:30:45
Перевод: Любительский (многоголосый)(Синема УС)
Субтитры: Отсутствуют

Режиссер: Фабьен Констант

rating

В ролях: Сара Джессика Паркер, Рене Зеллвегер, Тейлор Кинни, Саймон Бейкер, Коммон, Жаклин Биссет, Гас Бирни, Валид Зуэйтер, Мэри Бет Пейл, Дорис МакКарти

Описание: Нью-йоркская звезда джаза Вивьен накануне мирового турне получает безнадёжный диагноз. У неё остаётся всего 24 часа, чтобы пересмотреть свою жизнь, которую она провела в погоне за мечтой и успехом, отодвинув в сторону близких людей.

Доп. информация: Присутствуют вставки текстовой рекламы

Качество: WEB-DLRip
Формат: AVI
Видео кодек: XviD
Аудио кодек: AC3
Видео: XviD, 720x304, ~1681 Kbps
Аудио#1: AC-3, 2 ch, 384 Kbps
скриншот   скриншот   скриншот   скриншот  

Общее
Полное имя : C:\_\Лучший день моей жизни\Here and Now 2018 WEB-DLRip.avi
Формат : AVI
Формат/Информация : Audio Video Interleave
Профиль формата : OpenDML
Размер файла : 1,32 Гбайт
Продолжительность : 1 ч. 30 м.
Общий поток : 2077 Кбит/сек

Видео
Идентификатор : 0
Формат : MPEG-4 Visual
Профиль формата : Advanced Simple@L5
Параметр BVOP формата : 2
Параметр QPel формата : Нет
Параметр GMC формата : Без точки перехода
Параметр матрицы формата : Выборочная
Идентификатор кодека : XVID
Идентификатор кодека/Подсказка : XviD
Продолжительность : 1 ч. 30 м.
Битрейт : 1681 Кбит/сек
Ширина : 720 пикселей
Высота : 304 пикселя
Соотношение сторон : 2,35:1
Частота кадров : 23,976 (24000/1001) кадра/сек
Цветовое пространство : YUV
Субдискретизация насыщенности : 4:2:0
Битовая глубина : 8 бит
Тип развёртки : Прогрессивная
Метод сжатия : С потерями
Бит/(Пиксели*Кадры) : 0.320
Размер потока : 1,07 Гбайт (81%)
Библиотека кодирования : XviD 1.2.1 (UTC 2008-12-04)

Аудио
Идентификатор : 1
Формат : AC-3
Формат/Информация : Audio Coding 3
Расширение режима : CM (complete main)
Параметр Endianness формата : Big
Идентификатор кодека : 2000
Продолжительность : 1 ч. 30 м.
Вид битрейта : Постоянный
Битрейт : 384 Кбит/сек
Каналы : 2 канала
Расположение каналов : Front: L R
Частота : 48,0 КГц
Частота кадров : 31,250 кадров/сек (1536 spf)
Метод сжатия : С потерями
Размер потока : 249 Мбайт (18%)
Выравнивание : Соединение по промежуткам
Продолжительность промежутка : 32 мс. (0,77 видеокадр)

pb.wtf



Скачать Лучший день моей жизни через торрент http://pic1.kartinco.top/images/11/jddox.jpg Скачать фильм Лучший день моей жизни через торрент бесплантно в хорошем качестве Описание: Нью-йоркская звезда джаза Вивьен накануне мирового турне получает безнадёжный диагноз. У неё остаётся всего 24 часа, чтобы ... 5 10 1
Торрент: Зарегистрирован [2018-11-19 15:26] · скачан: 41 раз
Статус: T временная
Размер: 1.32 GB
Как cкачать? Как скачать Лучший день моей жизни через торрент | qTorrent

28-11-2019 20:33  

Отключить всю рекламу на сайте

    Дорогой пользователь! Огромная просьба, поблагодарите релизера, оцените раздачу и оставьте свои комментарий, если Вы скачали Лучший день моей жизни через торрент бесплатно! Внесите свою лепту в развитие PiratBit!
    Комментировать посты могут только пользователи прошедшие не сложную регистрацию
    Показать сообщения:    

    Лучший день моей жизни через торрент
    Скачать бесплатно Лучший день моей жизни
    Лучший день моей жизни скачать торрент
    Лучший день моей жизни смотреть онлайн
    Cкачать фильм Лучший день моей жизни бесплатно
    Лучший день моей жизни скачать торрент в хорошем качестве
    Лучший день моей жизни смотреть онлайн бесплатно в хорошем качестве


    Вы не можете начинать темы
    Вы не можете отвечать на сообщения
    Вы не можете редактировать свои сообщения
    Вы не можете удалять свои сообщения
    Вы не можете голосовать в опросах
    Вы не можете прикреплять файлы к сообщениям
    Вы можете скачивать файлы