Ссылка на приватное зеркало всего за 1$. Внимание количество ограничено!!!

iTunes

iTunes

iTunes

1

iTunes

iTunes

iTunes

WEBRip

iTunes

30
pack

$ от Little Big

ВАЖНО

!!Акция!!

Alien_RageХит недели

RePack

Resident Evil 21

ИГРА 18+

pack

RePack

jed

!!Акция!!

Alien_Rage

RePack

fifa19

RePack

Assassins Creed: Odyssey

RePack

NEED FOR SPEED™ PAYBACK

4 сезон

9 сезон

Бесстыжие 9 сезон

Все сериалы

все сериалы на PB.wtf

RePack

FAR CRY 5
  

Пастор и Про / The Pastor and the Pro (Мэттью Уилсон) [2018 г., Комедия, WEB-DLRip, Любительский (многоголосый)(Синема УС)] pb.wtf

Пастор и Про через торрент pb.wtf

Размер: 1.29 GB | Добавлен: 1 год 8 мес. назад | Торрент скачан:50 раз
Скачать  

19-11-2018 15:37 Пастор и Про Скачать торрент  

Пастор и Про / The Pastor and the Pro
Год выпуска: 2018
Страна: США
Жанр: Комедия
Продолжительность: 01:17:43
Перевод: Любительский (многоголосый)(Синема УС)
Субтитры: Отсутствуют

Режиссер: Мэттью Уилсон

rating

В ролях: Келли Каннингэм, Джеффри Бэйкер, Энди Триболини, Трэвис Линкольн Кокс, Филипп Кейман, Брайар Фрид-Голден, Моника Холм

Описание: Молодому одинокому пастору необходимо сопровождение на ужин, который устраивает его руководитель. Так как второй половинки у бедняги нет, он решает обратиться к представительнице самой древней профессии. Но вот проблема в том, что девушка ему очень нравится, и противостоять соблазну становится всё сложнее.

Доп. информация: Присутствуют вставки текстовой рекламы

Качество: WEB-DLRip
Формат: AVI
Видео кодек: XviD
Аудио кодек: MP3
Видео: XviD, 720x400, ~1982 Kbps
Аудио#1: AC-3, 2 ch, 384 Kbps
скриншот   скриншот   скриншот   скриншот  

Общее
Полное имя : C:\_\Пастор и Про\The Pastor and the Pro 2018 WEB-DLRip.avi
Формат : AVI
Формат/Информация : Audio Video Interleave
Профиль формата : OpenDML
Размер файла : 1,29 Гбайт
Продолжительность : 1 ч. 17 м.
Общий поток : 2378 Кбит/сек

Видео
Идентификатор : 0
Формат : MPEG-4 Visual
Профиль формата : Advanced Simple@L5
Параметр BVOP формата : 2
Параметр QPel формата : Нет
Параметр GMC формата : Без точки перехода
Параметр матрицы формата : Выборочная
Идентификатор кодека : XVID
Идентификатор кодека/Подсказка : XviD
Продолжительность : 1 ч. 17 м.
Битрейт : 1982 Кбит/сек
Ширина : 720 пикселей
Высота : 400 пикселей
Соотношение сторон : 16:9
Частота кадров : 23,976 (24000/1001) кадра/сек
Цветовое пространство : YUV
Субдискретизация насыщенности : 4:2:0
Битовая глубина : 8 бит
Тип развёртки : Прогрессивная
Метод сжатия : С потерями
Бит/(Пиксели*Кадры) : 0.287
Размер потока : 1,08 Гбайт (83%)
Библиотека кодирования : XviD 1.2.1 (UTC 2008-12-04)

Аудио
Идентификатор : 1
Формат : AC-3
Формат/Информация : Audio Coding 3
Расширение режима : CM (complete main)
Параметр Endianness формата : Big
Идентификатор кодека : 2000
Продолжительность : 1 ч. 17 м.
Вид битрейта : Постоянный
Битрейт : 384 Кбит/сек
Каналы : 2 канала
Расположение каналов : Front: L R
Частота : 48,0 КГц
Частота кадров : 31,250 кадров/сек (1536 spf)
Метод сжатия : С потерями
Размер потока : 213 Мбайт (16%)
Выравнивание : Соединение по промежуткам
Продолжительность промежутка : 32 мс. (0,77 видеокадр)

pb.wtf



Скачать Пастор и Про через торрент http://pic1.kartinco.top/images/11/l18xm.jpg Скачать фильм Пастор и Про через торрент бесплантно в хорошем качестве Описание: Молодому одинокому пастору необходимо сопровождение на ужин, который устраивает его руководитель. Так как второй половинки у ... 5 10 1
Торрент: Зарегистрирован [2018-11-19 15:37] · скачан: 50 раз
Статус: T временная
Размер: 1.29 GB
Как cкачать? Как скачать Пастор и Про через торрент | qTorrent

28-11-2019 20:33  

Отключить всю рекламу на сайте

    Дорогой пользователь! Огромная просьба, поблагодарите релизера, оцените раздачу и оставьте свои комментарий, если Вы скачали Пастор и Про через торрент бесплатно! Внесите свою лепту в развитие PiratBit!
    Комментировать посты могут только пользователи прошедшие не сложную регистрацию
    Показать сообщения:    

    Пастор и Про через торрент
    Скачать бесплатно Пастор и Про
    Пастор и Про скачать торрент
    Пастор и Про смотреть онлайн
    Cкачать фильм Пастор и Про бесплатно
    Пастор и Про скачать торрент в хорошем качестве
    Пастор и Про смотреть онлайн бесплатно в хорошем качестве


    Вы не можете начинать темы
    Вы не можете отвечать на сообщения
    Вы не можете редактировать свои сообщения
    Вы не можете удалять свои сообщения
    Вы не можете голосовать в опросах
    Вы не можете прикреплять файлы к сообщениям
    Вы можете скачивать файлы