Ссылка на приватное зеркало нашего сайта всего за 1$. Внимание количество ограничено!!!

2 сезон

iTunes

1 сезон

1

2 сезон

2 сезон

iTunes

1 сезон

RePack

30

Ultimate

ВАЖНО

ИГРА 18+

pack

RePack

MK11
pack

Забери бонус

RePack

jed

!!Акция!!

Alien_Rage

RePack

fifa19

RePack

Assassins Creed: Odyssey

RePack

NEED FOR SPEED™ PAYBACK

4 сезон

9 сезон

Бесстыжие 9 сезон

Все сериалы

все сериалы на PB.wtf

RePack

FAR CRY 5
  

Соната / The Sonata (Эндрю Десмонд) [2018, Триллер, WEB-DL 720p] DUB [iTunes] pb.wtf

Соната через торрент pb.wtf

Размер: 2.59 GB | Добавлен: 10 мес. назад | Торрент скачан:60 раз
Скачать  

19-11-2018 16:15 Соната Скачать торрент  

Соната / The Sonata Год выпуска: 2018
Страна: Россия, Великобритания, Латвия, Франция
Жанр: Триллер
Продолжительность: 01:24:06
Перевод: Дублированный | iTunes
Субтитры: Русские (хардсаб на французскую речь)

Режиссер: Эндрю Десмонд

rating

В ролях: Фрея Тингли, Рутгер Хауэр, Симон Абкарян, Джеймс Фолкнер, Мэтт Барбер, Катрин Шауб-Абкариан, Джеймс Кермак, Кристофер Брэнд

Описание: Виртуозная скрипачка Роза наследует старое поместье отца — знаменитого композитора, который ушел из жизни при странных обстоятельствах. Ничего не зная о жизни отца-затворника, Роза берется за расшифровку последней написанной им сонаты и невольно запускает изощренный механизм, задуманный композитором задолго до ее рождения. Кажется, и дом, и его окрестности хранят такие тайны, что даже самое талантливое произведение их не искупит.

Качество: WEB-DL 720p
Формат: MKV

Видео: MPEG-4 AVC, 4015 Кбит/с, 960x536@1280x536
Аудио: 48 kHz, AC3 Dolby Digital, 3/2 (L,C,R,l,r) + LFE ch, ~384 kbps
скриншот  скриншот  скриншот  скриншот  

Общее
Уникальный идентификатор : 185118512486372521255029785015461403204 (0x8B44875554A6ECA0BDA970908670DA44)
Полное имя : C:\Sonata.2018.WEB-DL.720p.ELEKTRI4KA.UNIONGANG.mkv
Формат : Matroska
Версия формата : Version 4 / Version 2
Размер файла : 2,59 Гбайт
Продолжительность : 1 ч. 24 м.
Общий поток : 4401 Кбит/сек
Дата кодирования : UTC 2020-01-15 14:15:18
Программа кодирования : mkvmerge v8.3.0 ('Over the Horizon') 64bit
Библиотека кодирования : libebml v1.3.1 + libmatroska v1.4.2

Видео
Идентификатор : 1
Формат : AVC
Формат/Информация : Advanced Video Codec
Профиль формата : Main@L3.1
Параметр CABAC формата : Нет
Параметр RefFrames формата : 2 кадра
Идентификатор кодека : V_MPEG4/ISO/AVC
Продолжительность : 1 ч. 24 м.
Битрейт : 4015 Кбит/сек
Ширина : 960 пикселей
Высота : 536 пикселей
Соотношение сторон : 2,40:1
Режим частоты кадров : Постоянный
Частота кадров : 25,000 кадров/сек
Цветовое пространство : YUV
Субдискретизация насыщенности : 4:2:0
Битовая глубина : 8 бит
Тип развёртки : Прогрессивная
Бит/(Пиксели*Кадры) : 0.305
Размер потока : 2,31 Гбайт (89%)
Заголовок : iTunes (ELEKTRI4KA.UNIONGANG)
Язык : English
Default : Да
Forced : Нет
Цветовой диапазон : Limited
Основные цвета : BT.709
Характеристики трансфера : BT.709
Коэффициенты матрицы : BT.709

Аудио
Идентификатор : 2
Формат : AC-3
Формат/Информация : Audio Coding 3
Расширение режима : CM (complete main)
Параметр Endianness формата : Big
Идентификатор кодека : A_AC3
Продолжительность : 1 ч. 24 м.
Вид битрейта : Постоянный
Битрейт : 384 Кбит/сек
Каналы : 6 каналов
Расположение каналов : Front: L C R, Side: L R, LFE
Частота : 48,0 КГц
Частота кадров : 31,250 кадров/сек (1536 spf)
Метод сжатия : С потерями
Размер потока : 231 Мбайт (9%)
Заголовок : iTunes (ELEKTRI4KA.UNIONGANG)
Язык : Russian
Default : Да
Forced : Нет

Меню
00:00:00.000 : en:Глава 1
00:02:34.000 : en:Глава 2
00:08:25.640 : en:Глава 3
00:12:34.079 : en:Глава 4
00:19:17.559 : en:Глава 5
00:25:19.439 : en:Глава 6
00:31:13.278 : en:Глава 7
00:36:32.277 : en:Глава 8
00:44:45.516 : en:Глава 9
00:49:35.876 : en:Глава 10
00:55:43.236 : en:Глава 11
01:03:22.156 : en:Глава 12
01:08:01.876 : en:Глава 13
01:18:12.596 : en:Глава 14

pb.wtf



Скачать Соната через торрент https://d.radikal.ru/d00/1811/2b/28f76aaa80ab.jpg Скачать фильм Соната через торрент бесплантно в хорошем качестве Описание: Виртуозная скрипачка Роза наследует старое поместье отца — знаменитого композитора, который ушел из жизни при странных ... 8.2 10 5
Торрент: Зарегистрирован [2020-01-15 20:17] · скачан: 60 раз
Статус: √ проверено
Размер: 2.59 GB
Как cкачать? Как скачать Соната через торрент | qTorrent

% Раздел Тема Автор DL S | L
Фильмы 2018 [DVDrip, WEB-DLRip, HDrip] (DUB, MVO) [ 1.42 GB ] Соната / The Sonata [2018 BDRip] - Twi7ter Скачать
3 | 0
Фильмы [HD 720p, 1080p] (Хороший звук DUB, MVO) [ 3.7 GB ] Соната / The Sonata [2018 BDRip 720p] bober100 Скачать
1 | 0
Фильмы [HD 720p, 1080p] (Хороший звук DUB, MVO) [ 7.07 GB ] Соната / The Sonata [2018 BDRip 1080p] bober100 Скачать
1 | 0
Фильмы 2018 [DVDrip, WEB-DLRip, HDrip] (DUB, MVO) [ 1.46 GB ] Соната / The Sonata [2018 BDRip] bober100 Скачать
2 | 0
Фильмы (Blu-ray, BD-Remux, HDDVD) [ 19.27 GB ] Соната / The Sonata [2018 BD Remux 1080p] bober100 Скачать
1 | 0
Фильмы (WEB-DL 720p, 1080p) [ 2.9 GB ] Соната / The Sonata [2018 WEB-DL 1080p] killermax2013 Скачать
1 | 0
Фильмы 2018 [DVDrip, WEB-DLRip, HDrip] (DUB, MVO) [ 747 MB ] Соната / The Sonata [2018 BDRip] bober100 Скачать
1 | 0


Последний раз редактировалось: bober100 (2020-01-15 20:19), всего редактировалось 2 раз(а)

28-11-2019 20:33  

Отключить всю рекламу на сайте

    Дорогой пользователь! Огромная просьба, поблагодарите релизера, оцените раздачу и оставьте свои комментарий, если Вы скачали Соната через торрент бесплатно! Внесите свою лепту в развитие PiratBit!
    Комментировать посты могут только пользователи прошедшие не сложную регистрацию
    Показать сообщения:    

    Соната через торрент
    Скачать бесплатно Соната
    Соната скачать торрент
    Соната смотреть онлайн
    Cкачать фильм Соната бесплатно
    Соната скачать торрент в хорошем качестве
    Соната смотреть онлайн бесплатно в хорошем качестве


    Вы не можете начинать темы
    Вы не можете отвечать на сообщения
    Вы не можете редактировать свои сообщения
    Вы не можете удалять свои сообщения
    Вы не можете голосовать в опросах
    Вы не можете прикреплять файлы к сообщениям
    Вы можете скачивать файлы