Ссылка на приватное зеркало нашего сайта всего за 1$. Внимание количество ограничено!!!

2 сезон

iTunes

1 сезон

1

iTunes

iTunes

iTunes

1 сезон

RePack

30

ИГРА 18+

pack

ВАЖНО

!!Акция!!

Alien_RageХит недели

RePack

MK11
pack

Забери бонус

RePack

jed

!!Акция!!

Alien_Rage

RePack

fifa19

RePack

Assassins Creed: Odyssey

RePack

NEED FOR SPEED™ PAYBACK

4 сезон

9 сезон

Бесстыжие 9 сезон

Все сериалы

все сериалы на PB.wtf

RePack

FAR CRY 5
  

Декабристка / Жертвоприношение / Сезон: 1 / Серии: 1-10 из 10 (Ирина Гедрович) [2018, Ретродрама, SATRip] pb.wtf

Декабристка через торрент pb.wtf

Размер: 6.36 GB | Добавлен: 1 год 11 мес. назад | Торрент скачан:77 раз
Скачать  

19-11-2018 16:22 Декабристка Скачать торрент  

Декабристка / Жертвоприношение
Год выпуска: 2018
Страна: Россия
Жанр: Ретродрама
Продолжительность: ~ 00:50:00 серия
Субтитры: отсутствуют

Режиссер: Ирина Гедрович



В ролях:

Светлана Иванова, Дмитрий Муляр, Сергей Пускепалис, Вячеслав Манучаров, Борис Каморзин, Анатолий Гущин, Дмитрий Ячевский, Максим Карушев, Полина Сыркина, Елена Папанова, Кристина Рубан, Александр Левин (II), Юлия Калашникова, Георгий Тополага, Николай Козак, Александр Давыдов (III)

Описание:

1950-е годы, Москва. У судебного секретаря Зинаиды Уваровой в жизни было много горя: ее муж погиб на войне, и женщина осталась одна с маленьким сыном Мишей. Теперь мальчику уже 11 лет, и Зинаида вновь хочет обрести женское счастье. Она планирует выйти замуж за адвоката Алексея Левицкого, но один донос перечеркивает и успешную адвокатскую карьеру ее возлюбленного, и предстоящую свадьбу. Алексея отправляют в ссылку на 10 лет в Иркутскую область. Зинаида, бросив все, отправляется вслед за возлюбленным. У нее нет четкого плана, но женщина знает только одно: она не может оставаться в Москве, когда ее любимый человек находится в лагере. Зина хочет добиться пересмотра дела и освобождения любимого мужчины. Фильм основан на реальных событиях.

Качество: SATRip
Формат: AVI

Видео: XviD, ~ 1650 Кбит/с, 720x400
Аудио: MP3, 2 ch, 192 Кбит/с
скриншот  скриншот  скриншот  скриншот  

Общее
Полное имя : D:\Dekabristka.2017.XviD.SATRip.25Kuzmich\Dekabristka.(01.seriya).XviD.SATRip.25Kuzmich.avi
Формат : AVI
Формат/Информация : Audio Video Interleave
Размер файла : 652 Мбайт
Продолжительность : 49 м. 12 с.
Общий поток : 1852 Кбит/сек
Программа кодирования : VirtualDubMod 1.5.10.3 | www.virtualdub-fr.org || (build 2550/release)
Библиотека кодирования : VirtualDubMod build 2550/release

Видео
Идентификатор : 0
Формат : MPEG-4 Visual
Профиль формата : Advanced Simple@L5
Параметр BVOP формата : 1
Параметр QPel формата : Нет
Параметр GMC формата : Без точки перехода
Параметр матрицы формата : Default (MPEG)
Идентификатор кодека : XVID
Идентификатор кодека/Подсказка : XviD
Продолжительность : 49 м. 12 с.
Битрейт : 1650 Кбит/сек
Ширина : 720 пикселей
Высота : 400 пикселей
Соотношение сторон : 16:9
Частота кадров : 25,000 кадров/сек
Цветовое пространство : YUV
Субдискретизация насыщенности : 4:2:0
Битовая глубина : 8 бит
Тип развёртки : Прогрессивная
Метод сжатия : С потерями
Бит/(Пиксели*Кадры) : 0.229
Размер потока : 581 Мбайт (89%)
Библиотека кодирования : XviD 1.2.1 (UTC 2008-12-04)

Аудио
Идентификатор : 1
Формат : MPEG Audio
Версия формата : Version 1
Профиль формата : Layer 3
Режим : Joint stereo
Расширение режима : MS Stereo
Идентификатор кодека : 55
Идентификатор кодека/Подсказка : MP3
Продолжительность : 49 м. 12 с.
Вид битрейта : Постоянный
Битрейт : 192 Кбит/сек
Каналы : 2 канала
Частота : 48,0 КГц
Метод сжатия : С потерями
Размер потока : 67,6 Мбайт (10%)
Выравнивание : Соединение по промежуткам
Продолжительность промежутка : 40 мс. (1,00 видеокадр)
Время предзагрузки промежутка : 504 мс.
Библиотека кодирования : LAME3.99r
Настройки программы : -m j -V 4 -q 2 -lowpass 18.6 -b 192

Внимание! Раздача ведётся путём добавления новых серий; при каждом добавлении создаётся новый торрент. Чтобы начать докачку новой серии, пользователям необходимо сделать следующее:

Остановить скачивание.

Удалить старый торрент у себя из клиента (старые серии удалять не надо).

Скачать новый торрент и запустить его у себя в клиенте вместо старого, при этом указать клиенту путь в старую папку куда и должно происходить скачивание новых серий.

Ваш клиент при этом должен произвести хеширование (проверку) старой папки (если не производит сам - помогите ему сделать это), и будет докачивать только те серии которых у вас ещё нет. Старые серии при этом не удаляются, а продолжают раздаваться!

Eсли вы уже удалили старые серии, то предотвратить повторную закачку старых серий можно, отжав галочку в соответсвующих местах при запуске нового торрента. По возможности, желательно не удалять старые серии как можно дольше чтобы релизёр не столько продолжал раздавать старые серии, а смог сконцентрироваться на новых.
pb.wtf



Скачать Декабристка через торрент http://i98.fastpic.ru/big/2018/1112/27/348bdfe084a79c5ad8c6d67e5effa027.jpg Скачать фильм Декабристка через торрент бесплантно в хорошем качестве Описание: 1950-е годы, Москва. У судебного секретаря Зинаиды Уваровой в жизни было много горя: ее муж погиб на войне, и женщина осталась ... 8.7 10 7
Торрент: Зарегистрирован [2018-11-23 17:03] · скачан: 77 раз
Статус: √ проверено
Размер: 6.36 GB
Как cкачать? Как скачать Декабристка через торрент | qTorrent



Последний раз редактировалось: bober100 (2018-11-23 17:03), всего редактировалось 2 раз(а)

28-11-2019 20:33  

Отключить всю рекламу на сайте

21-11-2018 19:01 Декабристка Скачать торрент  

нормальный сериал, посмотреть можноpb.wtf



21-11-2018 19:29 Декабристка Скачать торрент  

Хоть что то стоящее иногда появляется...pb.wtf



    Дорогой пользователь! Огромная просьба, поблагодарите релизера, оцените раздачу и оставьте свои комментарий, если Вы скачали Декабристка через торрент бесплатно! Внесите свою лепту в развитие PiratBit!
    Комментировать посты могут только пользователи прошедшие не сложную регистрацию
    Показать сообщения:    

    Декабристка через торрент
    Скачать бесплатно Декабристка
    Декабристка скачать торрент
    Декабристка смотреть онлайн
    Cкачать фильм Декабристка бесплатно
    Декабристка скачать торрент в хорошем качестве
    Декабристка смотреть онлайн бесплатно в хорошем качестве


    Вы не можете начинать темы
    Вы не можете отвечать на сообщения
    Вы не можете редактировать свои сообщения
    Вы не можете удалять свои сообщения
    Вы не можете голосовать в опросах
    Вы не можете прикреплять файлы к сообщениям
    Вы можете скачивать файлы