Ссылка на приватное зеркало нашего сайта всего за 1$. Внимание количество ограничено!!!

2 сезон

iTunes

1 сезон

1

2 сезон

2 сезон

iTunes

1 сезон

RePack

30

Ultimate

ВАЖНО

ИГРА 18+

pack

RePack

MK11
pack

Забери бонус

RePack

jed

!!Акция!!

Alien_Rage

RePack

fifa19

RePack

Assassins Creed: Odyssey

RePack

NEED FOR SPEED™ PAYBACK

4 сезон

9 сезон

Бесстыжие 9 сезон

Все сериалы

все сериалы на PB.wtf

RePack

FAR CRY 5
  

Стартап / StartUp / Сезон: 3 / Серии: 1-10 из 10 (Бен Кетаи) [2018, Триллер, криминал, WEBRip 1080p] [MVO] (NewStudio) pb.wtf

Стартап через торрент pb.wtf

Раздают: 1 [ 0 KB/s ]
Размер: 32.67 GB | Добавлен: 2 года назад | Торрент скачан:18 раз
Скачать  

19-11-2018 16:25 Стартап Скачать торрент  

Стартап / StartUp

Год выпуска: 2018
Страна: США
Жанр: Триллер, криминал
Продолжительность: ~ 00:45:00
Перевод: Профессиональный (многоголосый закадровый) - NewStudio

Режиссёр: Бен Кетаи

В ролях: Мартин Фриман, Адам Броди, Эди Гатеги, Кристен Ариза, Келвин Харрисон, Альфредо Де Куэсада, Джоселин Донахью

Описание: Действие картины разворачивается в США, в Майами. В сериале Мартин Фримен играет Фила Раска, агента ФБР, о котором известно, что он "применяет силу, когда ему приходится решать участь тех, кто находится в его власти - причем не всегда оправданно". Одним из таких людей, попавших в поле зрения этого прирожденного детектива, стал Ник Талман, талантливый финансист, работающий в консалтинговой компании в Майами. Но объектом интереса для Раска является не сам Ник, а его состоятельный отец, до поры до времени занимавшийся нелегальной деятельностью, а потом внезапно исчезнувший из общественного поля зрения...

rating скриншот  

Сэмпл: http://multi-up.com/1215390
Релиз: Wanterlude

Качество: WEBRip 1080p
Контейнер: MKV
Видео: MPEG-4 AVC, 1920x1080 (16:9), 23.976 fps, 10600 Kbps
Аудио 1: AC3, 48.0 KHz, 6 ch, 384 kbps [Rus]
Аудио 2: EAC3, 48.0 KHz, 6 ch, 640 kbps [Eng]
Субтитры: Русские, английские
Без рекламы благодаря:
Wanterlude

Субтитры:
▪ Русские (Forced, Full)
▪ Английские (Full, SDH)
General
Unique ID : 293258514230451505093620552615685777200 (0xDC9F890FFE5FA8C69FED8AFC7A57E730)
Complete name : D:\Релизы Трекер\StartUp.S03.1080p.NewStudio.(Wanterlude)\StartUp.2016.S03E01.Rebranding.1080p.NewStudio.(Wanterlude).mkv
Format : Matroska
Format version : Version 4
File size : 3.66 GiB
Duration : 44 min 51 s
Overall bit rate mode : Variable
Overall bit rate : 11.7 Mb/s
Movie name : StartUp | Ep 01 | NewStudio
Encoded date : UTC 2018-11-19 12:20:18
Writing application : mkvmerge v28.1.0 ('Morning Child') 64-bit
Writing library : libebml v1.3.6 + libmatroska v1.4.9

Video
ID : 1
Format : AVC
Format/Info : Advanced Video Codec
Format profile : High@L4
Format settings : CABAC / 4 Ref Frames
Format settings, CABAC : Yes
Format settings, RefFrames : 4 frames
Codec ID : V_MPEG4/ISO/AVC
Duration : 44 min 51 s
Bit rate mode : Variable
Bit rate : 10.6 Mb/s
Maximum bit rate : 15.0 Mb/s
Width : 1 920 pixels
Height : 1 080 pixels
Display aspect ratio : 16:9
Frame rate mode : Constant
Frame rate : 23.976 (24000/1001) FPS
Color space : YUV
Chroma subsampling : 4:2:0
Bit depth : 8 bits
Scan type : Progressive
Bits/(Pixel*Frame) : 0.214
Stream size : 3.33 GiB (91%)
Title : StartUp | Ep 01 | NewStudio
Default : Yes
Forced : No
Color range : Limited
Color primaries : BT.709
Transfer characteristics : BT.709
Matrix coefficients : BT.709

Audio #1
ID : 2
Format : AC-3
Format/Info : Audio Coding 3
Commercial name : Dolby Digital
Codec ID : A_AC3
Duration : 44 min 51 s
Bit rate mode : Constant
Bit rate : 384 kb/s
Channel(s) : 6 channels
Channel layout : L R C LFE Ls Rs
Sampling rate : 48.0 kHz
Frame rate : 31.250 FPS (1536 SPF)
Bit depth : 16 bits
Compression mode : Lossy
Stream size : 123 MiB (3%)
Title : NewStudio | Wanterlude
Language : Russian
Service kind : Complete Main
Default : Yes
Forced : Yes

Audio #2
ID : 3
Format : E-AC-3
Format/Info : Enhanced AC-3
Commercial name : Dolby Digital Plus
Codec ID : A_EAC3
Duration : 44 min 51 s
Bit rate mode : Constant
Bit rate : 640 kb/s
Channel(s) : 6 channels
Channel layout : L R C LFE Ls Rs
Sampling rate : 48.0 kHz
Frame rate : 31.250 FPS (1536 SPF)
Compression mode : Lossy
Stream size : 205 MiB (5%)
Language : English
Service kind : Complete Main
Default : No
Forced : No

Text #1
ID : 4
Format : UTF-8
Codec ID : S_TEXT/UTF8
Codec ID/Info : UTF-8 Plain Text
Duration : 44 min 38 s
Bit rate : 116 b/s
Count of elements : 620
Stream size : 38.1 KiB (0%)
Title : Full
Language : Russian
Default : No
Forced : No

Text #2
ID : 5
Format : UTF-8
Codec ID : S_TEXT/UTF8
Codec ID/Info : UTF-8 Plain Text
Duration : 42 min 2 s
Bit rate : 79 b/s
Count of elements : 620
Stream size : 24.6 KiB (0%)
Language : English
Default : No
Forced : No

Text #3
ID : 6
Format : UTF-8
Codec ID : S_TEXT/UTF8
Codec ID/Info : UTF-8 Plain Text
Duration : 42 min 2 s
Bit rate : 82 b/s
Count of elements : 655
Stream size : 25.4 KiB (0%)
Title : SDH
Language : English
Default : No
Forced : No
скриншот  скриншот  скриншот  
pb.wtf



Скачать Стартап через торрент https://i3.imageban.ru/out/2018/11/19/45393fd60892054013c0454e4235ff15.jpg Скачать фильм Стартап через торрент бесплантно в хорошем качестве Описание: Действие картины разворачивается в США, в Майами. В сериале Мартин Фримен играет Фила Раска, агента ФБР, о котором известно, что ... 10 10 1
Торрент: Зарегистрирован [2018-11-19 16:25] · скачан: 18 раз
Статус: √ проверено
Размер: 32.67 GB
Как cкачать? Как скачать Стартап через торрент | qTorrent

% Раздел Тема Автор DL S | L
Зарубежные сериалы [ 8.46 GB ] Стартап / StartUp / Сезон: 3 / Серия: 1-10 из 10 [2018 WEBRip 720p] [DVO] killermax2013 Скачать
1 | 0
Зарубежные сериалы [ 5.18 GB ] Стартап / StartUp / Сезон: 3 / Серия: 1-10 из 10 [2018 WEBRip] [MVO] killermax2013 Скачать
1 | 0
Зарубежные сериалы [ 18.88 GB ] Стартап / StartUp / Сезон: 3 / Серия: 1-10 из 10 [2018 WEBRip 1080p] [MVO] killermax2013 Скачать
1 | 0

28-11-2019 20:33  

Отключить всю рекламу на сайте

    Дорогой пользователь! Огромная просьба, поблагодарите релизера, оцените раздачу и оставьте свои комментарий, если Вы скачали Стартап через торрент бесплатно! Внесите свою лепту в развитие PiratBit!
    Комментировать посты могут только пользователи прошедшие не сложную регистрацию
    Показать сообщения:    

    Стартап через торрент
    Скачать бесплатно Стартап
    Стартап скачать торрент
    Стартап смотреть онлайн
    Cкачать фильм Стартап бесплатно
    Стартап скачать торрент в хорошем качестве
    Стартап смотреть онлайн бесплатно в хорошем качестве


    Вы не можете начинать темы
    Вы не можете отвечать на сообщения
    Вы не можете редактировать свои сообщения
    Вы не можете удалять свои сообщения
    Вы не можете голосовать в опросах
    Вы не можете прикреплять файлы к сообщениям
    Вы можете скачивать файлы