Ссылка на приватное зеркало нашего сайта всего за 1$. Внимание количество ограничено!!!

2 сезон

iTunes

1 сезон

1

2 сезон

2 сезон

iTunes

1 сезон

RePack

30

Ultimate

ВАЖНО

ИГРА 18+

pack

RePack

MK11
pack

Забери бонус

RePack

jed

!!Акция!!

Alien_Rage

RePack

fifa19

RePack

Assassins Creed: Odyssey

RePack

NEED FOR SPEED™ PAYBACK

4 сезон

9 сезон

Бесстыжие 9 сезон

Все сериалы

все сериалы на PB.wtf

RePack

FAR CRY 5
  

Комната 104 / Room 104 / Сезон: 2 / Серии: 1-12 из 12 (Сара Адина, Патрик Брайс, Дэйна Хэнсон) [2018, Триллер, драма, WEB-DLRip] MVO [Jaskier] pb.wtf

Комната 104 через торрент pb.wtf

Размер: 3.79 GB | Добавлен: 1 год 11 мес. назад | Торрент скачан:6 раз
Скачать  

19-11-2018 20:05 Комната 104 Скачать торрент  

Комната 104 / Room 104 Год выпуска: 2018
Страна: США
Жанр: Триллер, драма, экранизация
Продолжительность: ~00:23:00
Перевод: Профессиональный (многоголосый закадровый) | Jaskier
Субтитры: отсутствуют

Режиссёр: Сара Адина, Патрик Брайс, Дэйна Хэнсон

В ролях:

Мелони Диас, Кларк Дьюк, Джей Дюпласс, Адам Фостер, Каран Сони, Дендри Тейлор, Сара Хэй, Пурна Джаганнатан, Орландо Джонс

Описание:

Действие происходит в номере обыкновенного американского отеля неподалёку от аэропорта. Это самое скучное и унылое место, которое только можно вообразить. Но именно среди тусклой обыденности часто случаются необыкновенные вещи — смешные, странные, грустные, абсурдные и даже страшные.

rating

Качество: WEB-DLRip
Формат: AVI

Видео: XviD, ~ 1332 kbps, 720x400 (16:9), 23.976 fps
Аудио 1: MP3, 48,0 КГц, 2 ch, 128 kbps - Rus
Аудио 2: MP3, 48,0 КГц, 2 ch, 128 kbps - Eng


Реклама: Присутствует звуковая (два раза в начале и конце по 12 сек.)
Переведено и озвучено студией JASKIER
Общее
Полное имя                               : G:\Загрузки\Room.104.S02E01.WEB-DLRip.Rus.Eng.Jaskier.avi
Формат                                   : AVI
Формат/Информация                        : Audio Video Interleave
Размер файла                             : 301 Мбайт
Продолжительность                        : 26 м. 15 с.
Общий поток                              : 1602 Кбит/сек
Программа кодирования                    : VirtualDubMod 1.5.10.3 | www.virtualdub-fr.org || (build 2550/release)
Библиотека кодирования                   : VirtualDubMod build 2550/release

Видео
Идентификатор                            : 0
Формат                                   : MPEG-4 Visual
Профиль формата                          : Advanced Simple@L5
Настройки формата                        : BVOP1 / Custom Matrix
Параметр BVOP формата                    : 1
Параметр QPel формата                    : Нет
Параметр GMC формата                     : Без точки перехода
Параметр матрицы формата                 : Выборочная
Идентификатор кодека                     : XVID
Идентификатор кодека/Подсказка           : XviD
Продолжительность                        : 26 м. 14 с.
Битрейт                                  : 1332 Кбит/сек
Ширина                                   : 720 пикселей
Высота                                   : 400 пикселей
Соотношение сторон                       : 16:9
Частота кадров                           : 23,976 (24000/1001) кадра/сек
Цветовое пространство                    : YUV
Субдискретизация насыщенности            : 4:2:0
Битовая глубина                          : 8 бит
Тип развёртки                            : Прогрессивная
Метод сжатия                             : С потерями
Бит/(Пиксели*Кадры)                      : 0.193
Размер потока                            : 250 Мбайт (83%)
Библиотека кодирования                   : XviD 73

Аудио #1
Идентификатор                            : 1
Формат                                   : MPEG Audio
Версия формата                           : Version 1
Профиль формата                          : Layer 3
Настройки формата                        : Joint stereo / MS Stereo
Идентификатор кодека                     : 55
Идентификатор кодека/Подсказка           : MP3
Продолжительность                        : 26 м. 15 с.
Вид битрейта                             : Постоянный
Битрейт                                  : 128 Кбит/сек
Каналы                                   : 2 канала
Частота                                  : 48,0 КГц
Метод сжатия                             : С потерями
Размер потока                            : 24,0 Мбайт (8%)
Выравнивание                             : Соединение по промежуткам
Продолжительность промежутка             : 42  мс. (1,00 видеокадр)
Время предзагрузки промежутка            : 504  мс.

Аудио #2
Идентификатор                            : 2
Формат                                   : MPEG Audio
Версия формата                           : Version 1
Профиль формата                          : Layer 3
Настройки формата                        : Joint stereo
Идентификатор кодека                     : 55
Идентификатор кодека/Подсказка           : MP3
Продолжительность                        : 26 м. 15 с.
Вид битрейта                             : Постоянный
Битрейт                                  : 128 Кбит/сек
Каналы                                   : 2 канала
Частота                                  : 48,0 КГц
Метод сжатия                             : С потерями
Размер потока                            : 24,0 Мбайт (8%)
Выравнивание                             : Соединение по промежуткам
Продолжительность промежутка             : 42  мс. (1,00 видеокадр)
Время предзагрузки промежутка            : 504  мс.
скриншот  скриншот  скриншот  
Когда раздача ведётся путём добавления новых серий, при каждом добавлении создётся новый торрент. Чтобы начать докачку новой серии, пользователям необходимо сделать следующее:
(1) остановить скачивание,
(2) удалить старый торрент у себя из клиента (старые серии удалять не надо),
(3) скачать новый торрент и запустить его у себя в клиенте вместо старого, при этом указать клиенту путь в старую папку, куда и должно происходить скачивание новых серий.
Ваш клиент при этом должен произвести хеширование (проверку) старой папки (если не производит сам - помогите ему сделать это), и будет докачивать только те серии, которых у вас ещё нет. Старые серии при этом не удаляются, а продолжают раздаваться!
Eсли вы уже удалили старые серии, то предотвратить повторную закачку старых серий можно, отжав галочку в соответсвующих местах при запуске нового торрента. По возможности, желательно не удалять старые серии как можно дольше, чтобы релизёр не столько продолжал раздавать старые серии, а смог сконцентрироваться на новых.
pb.wtf



Скачать Комната 104 через торрент http://img11.lostpic.net/2018/11/18/de6d58a220a4b97166ab91457973efee.png Скачать фильм Комната 104 через торрент бесплантно в хорошем качестве Описание: Действие происходит в номере обыкновенного американского отеля неподалёку от аэропорта. Это самое скучное и унылое место, которое ... 10 10 2
Торрент: Зарегистрирован [2018-12-25 13:14] · скачан: 6 раз
Статус: √ проверено
Размер: 3.79 GB
Как cкачать? Как скачать Комната 104 через торрент | qTorrent

% Раздел Тема Автор DL S | L
Зарубежные сериалы [ 3.79 GB ] Комната 104 / Room 104 / Сезон: 2 / Серии: 1-12 из 12 [2018 WEB-DLRip] MVO [Good People] bober100 Скачать
1 | 0
Зарубежные сериалы [ 13.86 GB ] Комната 104 / Room 104 / Сезон: 2 / Серии: 1-12 из 12 [2018 WEB-DL 1080p] MVO [Jaskier] bober100 Скачать
1 | 0

28-11-2019 20:33  

Отключить всю рекламу на сайте

    Дорогой пользователь! Огромная просьба, поблагодарите релизера, оцените раздачу и оставьте свои комментарий, если Вы скачали Комната 104 через торрент бесплатно! Внесите свою лепту в развитие PiratBit!
    Комментировать посты могут только пользователи прошедшие не сложную регистрацию
    Показать сообщения:    

    Комната 104 через торрент
    Скачать бесплатно Комната 104
    Комната 104 скачать торрент
    Комната 104 смотреть онлайн
    Cкачать фильм Комната 104 бесплатно
    Комната 104 скачать торрент в хорошем качестве
    Комната 104 смотреть онлайн бесплатно в хорошем качестве


    Вы не можете начинать темы
    Вы не можете отвечать на сообщения
    Вы не можете редактировать свои сообщения
    Вы не можете удалять свои сообщения
    Вы не можете голосовать в опросах
    Вы не можете прикреплять файлы к сообщениям
    Вы можете скачивать файлы