Ссылка на приватное зеркало нашего сайта всего за 1$. Внимание количество ограничено!!!

2 сезон

iTunes

1 сезон

1

2 сезон

2 сезон

iTunes

1 сезон

RePack

30

Ultimate

ВАЖНО

ИГРА 18+

pack

RePack

MK11
pack

Забери бонус

RePack

jed

!!Акция!!

Alien_Rage

RePack

fifa19

RePack

Assassins Creed: Odyssey

RePack

NEED FOR SPEED™ PAYBACK

4 сезон

9 сезон

Бесстыжие 9 сезон

Все сериалы

все сериалы на PB.wtf

RePack

FAR CRY 5
  

Бюро легенд / Le Bureau des Légendes / Сезон: 4 / Серии: 1-10 из 10 (Хелье Систерн, Лайла Марракчи, Эрик Роша) [2018, Драма, HDTVRip 720p] [MVO] (Spike) pb.wtf

Бюро легенд через торрент pb.wtf

Размер: 8.58 GB | Добавлен: 2 года назад | Торрент скачан:23 раза
Скачать  

20-11-2018 12:52 Бюро легенд Скачать торрент  

Бюро легенд / Le Bureau des Légendes

Год выпуска: 2018
Страна: Франция
Жанр: Драма
Продолжительность: 00:55:00
Перевод: Профессиональный (многоголосый закадровый) Эй Би Видео по заказу телеканала Spike

Режиссёр: Хелье Систерн, Лайла Марракчи, Эрик Роша

В ролях: Матьё Кассовиц, Жан-Пьер Дарруссен, Сара Жиродо, Флоранс Луаре, Жиль Коэн, Жуль Саго, Александр Брассе, Леа Дрюкер, Жан-Мари Роллин

Описание: Агент французской разведки возвращается после успешного задания из Сирии, где он провел последние шесть лет, работая под прикрытием. Вопреки инструкциям и принятой процедуре он не возвращает себе настоящее имя и личность, а продолжает оставаться в роли.

ratingскриншот  
Сэмпл

Качество: HDTVRip 720p
Контейнер: MKV
Видео: MPEG4 Video (H264) 1280x720 25fps ~2 Mbps
Аудио 1: Dolby AC3 48000Hz stereo 192kbps - Русский
Аудио 2: Dolby AC3 48000Hz 6ch 384kbps - Французский
Реклама: Отсутствует
Пользователям KomissarMiclovan и nonstop1977 за запись материала с телеканала Spike
General
Unique ID : 6441142446188826425100879085359570607 (0x4D884D75F43C7D17F05D4D781639EAF)
Complete name : Le.Bureau.Des.Legendes.S04E01.RUSSIAN.FRENCH.720p.HDTV.x264-SPiTES.mkv
Format : Matroska
Format version : Version 4
File size : 973 MiB
Duration : 50 min 24 s
Overall bit rate : 2 698 kb/s
Encoded date : UTC 2018-11-18 12:13:22
Writing application : mkvmerge v27.0.0 ('Metropolis') 64-bit
Writing library : libebml v1.3.6 + libmatroska v1.4.9

Video
ID : 1
Format : AVC
Format/Info : Advanced Video Codec
Format profile : High@L4.1
Format settings : CABAC / 8 Ref Frames
Format settings, CABAC : Yes
Format settings, ReFrames : 8 frames
Codec ID : V_MPEG4/ISO/AVC
Duration : 50 min 23 s
Bit rate : 2 120 kb/s
Width : 1 280 pixels
Height : 720 pixels
Display aspect ratio : 16:9
Frame rate mode : Constant
Frame rate : 25.000 FPS
Color space : YUV
Chroma subsampling : 4:2:0
Bit depth : 8 bits
Scan type : Progressive
Bits/(Pixel*Frame) : 0.092
Stream size : 764 MiB (79%)
Writing library : x264 core 157 r2935 545de2f
Encoding settings : cabac=1 / ref=8 / deblock=1:0:0 / analyse=0x3:0x133 / me=umh / subme=10 / psy=1 / psy_rd=1.00:0.00 / mixed_ref=1 / me_range=32 / chroma_me=1 / trellis=2 / 8x8dct=1 / cqm=0 / deadzone=21,11 / fast_pskip=0 / chroma_qp_offset=-2 / threads=18 / lookahead_threads=1 / sliced_threads=0 / nr=0 / decimate=1 / interlaced=0 / bluray_compat=0 / constrained_intra=0 / bframes=3 / b_pyramid=2 / b_adapt=2 / b_bias=0 / direct=3 / weightb=1 / open_gop=0 / weightp=2 / keyint=250 / keyint_min=25 / scenecut=40 / intra_refresh=0 / rc_lookahead=60 / rc=crf / mbtree=1 / crf=18.0 / qcomp=0.60 / qpmin=0 / qpmax=69 / qpstep=4 / ip_ratio=1.40 / aq=1:1.00
Language : English
Default : Yes
Forced : No
Color range : Limited
Matrix coefficients : BT.709

Audio #1
ID : 2
Format : AC-3
Format/Info : Audio Coding 3
Commercial name : Dolby Digital
Codec ID : A_AC3
Duration : 50 min 24 s
Bit rate mode : Constant
Bit rate : 192 kb/s
Channel(s) : 2 channels
Channel layout : L R
Sampling rate : 48.0 kHz
Frame rate : 31.250 FPS (1536 SPF)
Bit depth : 16 bits
Compression mode : Lossy
Stream size : 69.2 MiB (7%)
Title : Russian
Language : Russian
Service kind : Complete Main
Default : Yes
Forced : No

Audio #2
ID : 3
Format : AC-3
Format/Info : Audio Coding 3
Commercial name : Dolby Digital
Codec ID : A_AC3
Duration : 50 min 23 s
Bit rate mode : Constant
Bit rate : 384 kb/s
Channel(s) : 6 channels
Channel layout : L R C LFE Ls Rs
Sampling rate : 48.0 kHz
Frame rate : 31.250 FPS (1536 SPF)
Bit depth : 16 bits
Compression mode : Lossy
Stream size : 138 MiB (14%)
Title : French
Language : French
Service kind : Complete Main
Default : No
Forced : No
скриншот  скриншот  скриншот  
Когда раздача ведётся путём добавления новых серий, при каждом добавлении создётся новый торрент. Чтобы начать докачку новой серии, пользователям необходимо сделать следующее:
(1) остановить скачивание,
(2) удалить старый торрент у себя из клиента (старые серии удалять не надо),
(3) скачать новый торрент и запустить его у себя в клиенте вместо старого, при этом указать клиенту путь в старую папку, куда и должно происходить скачивание новых серий.
Ваш клиент при этом должен произвести хеширование (проверку) старой папки (если не производит сам - помогите ему сделать это), и будет докачивать только те серии, которых у вас ещё нет. Старые серии при этом не удаляются, а продолжают раздаваться!
Eсли вы уже удалили старые серии, то предотвратить повторную закачку старых серий можно, отжав галочку в соответсвующих местах при запуске нового торрента. По возможности, желательно не удалять старые серии как можно дольше, чтобы релизёр не столько продолжал раздавать старые серии, а смог сконцентрироваться на новых.
pb.wtf



Скачать Бюро легенд через торрент http://funkyimg.com/i/2MZE8.jpg Скачать фильм Бюро легенд через торрент бесплантно в хорошем качестве Описание: Агент французской разведки возвращается после успешного задания из Сирии, где он провел последние шесть лет, работая под ... 10 10 1
Торрент: Зарегистрирован [2018-11-24 07:22] · скачан: 23 раз
Статус: √ проверено
Размер: 8.58 GB
Как cкачать? Как скачать Бюро легенд через торрент | qTorrent

28-11-2019 20:33  

Отключить всю рекламу на сайте

    Дорогой пользователь! Огромная просьба, поблагодарите релизера, оцените раздачу и оставьте свои комментарий, если Вы скачали Бюро легенд через торрент бесплатно! Внесите свою лепту в развитие PiratBit!
    Комментировать посты могут только пользователи прошедшие не сложную регистрацию
    Показать сообщения:    

    Бюро легенд через торрент
    Скачать бесплатно Бюро легенд
    Бюро легенд скачать торрент
    Бюро легенд смотреть онлайн
    Cкачать фильм Бюро легенд бесплатно
    Бюро легенд скачать торрент в хорошем качестве
    Бюро легенд смотреть онлайн бесплатно в хорошем качестве


    Вы не можете начинать темы
    Вы не можете отвечать на сообщения
    Вы не можете редактировать свои сообщения
    Вы не можете удалять свои сообщения
    Вы не можете голосовать в опросах
    Вы не можете прикреплять файлы к сообщениям
    Вы можете скачивать файлы