новый адрес
Ссылка на приватное зеркало всего за 1$. Внимание количество ограничено!!!

iTunes

1+1

iTunes

мы

WEB-DL

1

iTunes

Чернобыль

iTunes

Ральф против интернета

Лицензия

ПШазам

Лицензия

Оно 2

Лицензия

30
pack

Вам бонус

ВАЖНО

!!Акция!!

Alien_RageХит недели

RePack

Resident Evil 21

ИГРА 18+

pack

RePack

jed

!!Акция!!

Alien_Rage

RePack

fifa19

RePack

Assassins Creed: Odyssey

RePack

NEED FOR SPEED™ PAYBACK

3 сезон

9 сезон

Бесстыжие 9 сезон

Все сериалы

все сериалы на PB.wtf

RePack

FAR CRY 5
Ребята, катастрофически не хватает 1900р. для оплаты серверов за Октябрь (всвязи с блокировками трафик упал в 3 раза), 1-2р., выручайте.
  

Пансион / Boarding School (Боаз Якин) [2018, Ужасы, BDRip-AVC] MVO [HDRezka Studio] pb.wtf

Пансион через торрент pb.wtf

Размер: 2.29 GB | Добавлен: 1 год назад | Торрент скачан:106 раз
Скачать  

20-11-2018 17:02 Пансион Скачать торрент  

Пансион / Boarding School
Год выпуска: 2018
Страна: США
Жанр: Ужасы
Продолжительность: 01:51:35
Перевод: Профессиональный (многоголосый) | HDRezka Studio
Субтитры: Английские

Режиссер: Боаз Якин

rating

В ролях:

Люк Праель, Стерлинг Джеринс, Уилл Пэттон, Коби Джордж, Кадин Джордж, Николас Оливери, Саманта Мэтис, Роберт Джон Бёрк, Надя Александр, Люси Уолтерс

Описание:

2-летний Джэйкоб страдает от повторяющегося ночного кошмара, что выводит его мать из себя. Когда умирает его еврейская бабушка, о которой он никогда не слышал, парень узнает ужасные подробности её жизни во время Второй мировой войны. Разбирая вещи покойной, Джэйкоб надевает бабушкино платье, за что отчим отправляет его в закрытую школу для проблемных детей. На месте выясняется, что порядки в пансионе строгие, а директор не брезгует и телесными наказаниями. Оказавшимся заложниками ситуации ребятам предстоит ещё немало ужасных открытий.

Качество: BDRip-AVC
Формат: MKV

Видео: 1024x554 (1.85:1), 24,000 fps, x264 ~2 297 kbps avg
Аудио#1: 48 kHz, Audio Coding 3, 2 (L,R) ch, ~192.00 kbps avg | RUS (HDrezka Studio)
Аудио#2: 48 kHz, AC3 Dolby Digital, 3/2 (L,C,R,l,r) + LFE ch, ~448.00 kbps avg | ENG
скриншот  скриншот  скриншот  скриншот  скриншот  

Общее
Уникальный идентификатор : 154979935801974582272708011045752899767 (0x74980CC72A5A3D442545431FAF2788B7)
Полное имя : F:\OlLanDGroup\Boarding.School.2018.BDRip(AVC).OlLanDGroup.mkv
Формат : Matroska
Версия формата : Version 4 / Version 2
Размер файла : 2,29 Гбайт
Продолжительность : 1 ч. 51 м.
Общий поток : 2934 Кбит/сек
Название фильма : Boarding.School.2018 #TorpedoUK#
Дата кодирования : UTC 2018-11-20 13:32:49
Программа кодирования : mkvmerge v25.0.0 ('Prog Noir') 64-bit
Библиотека кодирования : libebml v1.3.6 + libmatroska v1.4.9

Видео
Идентификатор : 1
Формат : AVC
Формат/Информация : Advanced Video Codec
Профиль формата : High@L4.1
Параметр CABAC формата : Да
Параметр ReFrames формата : 10 кадров
Идентификатор кодека : V_MPEG4/ISO/AVC
Продолжительность : 1 ч. 51 м.
Битрейт : 2297 Кбит/сек
Ширина : 1024 пикселя
Высота : 554 пикселя
Соотношение сторон : 1,85:1
Режим частоты кадров : Постоянный
Частота кадров : 24,000 кадра/сек
Цветовое пространство : YUV
Субдискретизация насыщенности : 4:2:0
Битовая глубина : 8 бит
Тип развёртки : Прогрессивная
Бит/(Пиксели*Кадры) : 0.169
Размер потока : 1,79 Гбайт (78%)
Библиотека кодирования : x264 core 146 r2538 121396c
Настройки программы : cabac=1 / ref=10 / deblock=1:-3:-3 / analyse=0x3:0x113 / me=umh / subme=11 / psy=1 / psy_rd=0.97:0.05 / mixed_ref=1 / me_range=48 / chroma_me=1 / trellis=2 / 8x8dct=1 / cqm=0 / deadzone=21,11 / fast_pskip=1 / chroma_qp_offset=-3 / threads=6 / lookahead_threads=1 / sliced_threads=0 / nr=0 / decimate=1 / interlaced=0 / bluray_compat=0 / constrained_intra=0 / bframes=11 / b_pyramid=2 / b_adapt=2 / b_bias=0 / direct=3 / weightb=1 / open_gop=0 / weightp=2 / keyint=240 / keyint_min=24 / scenecut=40 / intra_refresh=0 / rc_lookahead=40 / rc=2pass / mbtree=0 / bitrate=2297 / ratetol=1.0 / qcomp=0.60 / qpmin=0 / qpmax=69 / qpstep=4 / cplxblur=20.0 / qblur=0.5 / vbv_maxrate=50000 / vbv_bufsize=62500 / nal_hrd=none / filler=0 / ip_ratio=1.40 / pb_ratio=1.30 / aq=1:1.00
Язык : English
Default : Да
Forced : Нет

Аудио #1
Идентификатор : 2
Формат : AC-3
Формат/Информация : Audio Coding 3
Расширение режима : CM (complete main)
Параметр Endianness формата : Big
Идентификатор кодека : A_AC3
Продолжительность : 1 ч. 51 м.
Вид битрейта : Постоянный
Битрейт : 192 Кбит/сек
Каналы : 2 канала
Расположение каналов : Front: L R
Частота : 48,0 КГц
Частота кадров : 31,250 кадров/сек (1536 spf)
Битовая глубина : 16 бит
Метод сжатия : С потерями
Размер потока : 153 Мбайт (7%)
Заголовок : MVO [HDRezka Studio]
Язык : Russian
Default : Да
Forced : Нет

Аудио #2
Идентификатор : 3
Формат : AC-3
Формат/Информация : Audio Coding 3
Расширение режима : CM (complete main)
Параметр Endianness формата : Big
Идентификатор кодека : A_AC3
Продолжительность : 1 ч. 51 м.
Вид битрейта : Постоянный
Битрейт : 448 Кбит/сек
Каналы : 6 каналов
Расположение каналов : Front: L C R, Side: L R, LFE
Частота : 48,0 КГц
Частота кадров : 31,250 кадров/сек (1536 spf)
Битовая глубина : 16 бит
Метод сжатия : С потерями
Размер потока : 358 Мбайт (15%)
Заголовок : [Original]
Язык : English
Default : Нет
Forced : Нет

Текст #1
Идентификатор : 4
Формат : UTF-8
Идентификатор кодека : S_TEXT/UTF8
Идентификатор кодека/Информация : UTF-8 Plain Text
Продолжительность : 1 ч. 44 м.
Битрейт : 47 бит/сек
Count of elements : 1161
Размер потока : 36,4 Кбайт (0%)
Заголовок : Full
Язык : English
Default : Нет
Forced : Нет

Текст #2
Идентификатор : 5
Формат : UTF-8
Идентификатор кодека : S_TEXT/UTF8
Идентификатор кодека/Информация : UTF-8 Plain Text
Продолжительность : 1 ч. 51 м.
Битрейт : 51 бит/сек
Count of elements : 1329
Размер потока : 42,0 Кбайт (0%)
Заголовок : SDH
Язык : English
Default : Нет
Forced : Нет

Меню
00:00:00.000 : en:Chapter 1
00:01:04.666 : en:Chapter 2
00:04:10.625 : en:Chapter 3
00:09:13.291 : en:Chapter 4
00:12:53.166 : en:Chapter 5
00:18:31.291 : en:Chapter 6
00:24:50.958 : en:Chapter 7
00:33:51.166 : en:Chapter 8
00:39:35.458 : en:Chapter 9
00:45:58.875 : en:Chapter 10
00:53:21.833 : en:Chapter 11
01:00:17.750 : en:Chapter 12
01:10:15.000 : en:Chapter 13
01:19:51.291 : en:Chapter 14
01:26:24.000 : en:Chapter 15
01:33:29.625 : en:Chapter 16
01:41:05.791 : en:Chapter 17
01:45:36.000 : en:Chapter 18

pb.wtf



Скачать Пансион через торрент http://i106.fastpic.ru/big/2018/1120/1b/7d21248c82f05aa519aa55bd6c5b7f1b.jpg Скачать фильм Пансион через торрент бесплантно в хорошем качестве Описание: 2-летний Джэйкоб страдает от повторяющегося ночного кошмара, что выводит его мать из себя. Когда умирает его еврейская бабушка, о ... 10 10 7
Торрент: Зарегистрирован [2018-11-20 17:02] · скачан: 106 раз
Статус: T временная
Размер: 2.29 GB
Как cкачать? Как скачать Пансион через торрент | qTorrent

% Раздел Тема Автор DL S | L
T Фильмы (Blu-ray, BD-Remux, HDDVD) [ 30.38 GB ] Пансион / Boarding School [2018 BD Remux 1080p] MVO [HDRezka Studio] bober100 Скачать
1 | 0
T Фильмы 2018 [DVDrip, WEB-DLRip, HDrip] (DUB, MVO) [ 1.46 GB ] Пансион / Boarding School [2018 BDRip] MVO [HDRezka Studio] bober100 Скачать
1 | 0
T Фильмы (WEB-DL 720p, 1080p) [ 4.37 GB ] Пансион / Boarding School [2018 WEB-DL 1080p] [MVO] killermax2013 Скачать
1 | 0

28-11-2019 20:33  

Отключить всю рекламу на сайте

    Дорогой пользователь! Огромная просьба, поблагодарите релизера, оцените раздачу и оставьте свои комментарий, если Вы скачали Пансион через торрент бесплатно! Внесите свою лепту в развитие PiratBit!
    Комментировать посты могут только пользователи прошедшие не сложную регистрацию
    Показать сообщения:    

    Пансион через торрент
    Скачать бесплатно Пансион
    Пансион скачать торрент
    Пансион смотреть онлайн
    Cкачать фильм Пансион бесплатно
    Пансион скачать торрент в хорошем качестве
    Пансион смотреть онлайн бесплатно в хорошем качестве


    Вы не можете начинать темы
    Вы не можете отвечать на сообщения
    Вы не можете редактировать свои сообщения
    Вы не можете удалять свои сообщения
    Вы не можете голосовать в опросах
    Вы не можете прикреплять файлы к сообщениям
    Вы можете скачивать файлы