Ссылка на приватное зеркало всего за 1$. Внимание количество ограничено!!!

OK

1+1

iTunes

мы

OK

1

WEB-DLRip

Джокер

Пифагор

Ведьмак / The Witcher сериал

iTunes

ПШазам

ОК

Оно 2

iTunes

30
pack

Вам бонус

ВАЖНО

!!Акция!!

Alien_RageХит недели

RePack

Resident Evil 21

ИГРА 18+

pack

RePack

jed

RePack

fifa19

RePack

Assassins Creed: Odyssey

RePack

NEED FOR SPEED™ PAYBACK

4 сезон

9 сезон

Бесстыжие 9 сезон

Все сериалы

все сериалы на PB.wtf

RePack

FAR CRY 5
  

Громко бьются сердца / Hearts Beat Loud (Бретт Хейли) [2018, драма, музыка, BDRip 720p] MVO [Официальный звук] pb.wtf

Громко бьются сердца через торрент pb.wtf

Размер: 4.76 GB | Добавлен: 1 год 2 мес. назад | Торрент скачан:8 раз
Скачать  

20-11-2018 18:23 Громко бьются сердца Скачать торрент  

Громко бьются сердца / Hearts Beat Loud Год выпуска: 2018
Страна: США
Жанр: драма, музыка
Продолжительность: 01:38:01
Перевод: Профессиональный многоголосый | Официальный звук
Субтитры: отсутствуют

Режиссер: Бретт Хейли

rating

В ролях:

Ник Офферман, Кирси Клемонс, Тед Дэнсон, Тони Коллетт, Саша Лэйн, Блайт Даннер, Куинси Данн-Бэйкер, Алекс Резник, Андреа Моралес, Майкл Эбботт мл.

Описание:

Владелец скромного музыкального магазина Фрэнк в одиночестве воспитывает дочь Сэм - темнокожую девушку-подростка с ЛГБТ-взглядами. Накануне её поступления в колледж и переезда в другой город отец и дочь сближаются на почве любви к музыке. Объединившись в дуэт, они записывают прощальный песенный хит.

Качество: BDRip 720p
Формат: MKV

Видео: h.264,6 503 Кбит/с, 1280x640
Аудио#1: Русский (AC3, 2 ch, 448 Кбит/с)
скриншот  скриншот  скриншот  

Общее
Уникальный идентификатор : 206977103462935252156791507862411704160 (0x9BB657132A2A2ADFA6DA7391AD6A7760)
Полное имя : D:\Hearts.Beat.Loud.2018.Pof.BDRip.72Op.mkv
Формат : Matroska
Версия формата : Version 2
Размер файла : 4,76 Гбайт
Продолжительность : 1 ч. 38 м.
Режим общего битрейта : Переменный
Общий поток : 6953 Кбит/сек
Дата кодирования : UTC 2018-11-20 14:45:36
Программа кодирования : mkvmerge v8.3.0 ('Over the Horizon') 64bit
Библиотека кодирования : libebml v1.3.1 + libmatroska v1.4.2

Видео
Идентификатор : 1
Формат : AVC
Формат/Информация : Advanced Video Codec
Профиль формата : High@L4.1
Параметр CABAC формата : Да
Параметр RefFrames формата : 4 кадра
Идентификатор кодека : V_MPEG4/ISO/AVC
Продолжительность : 1 ч. 38 м.
Вид битрейта : Переменный
Битрейт : 6503 Кбит/сек
Максимальный битрейт : 7500 Кбит/сек
Ширина : 1280 пикселей
Высота : 640 пикселей
Соотношение сторон : 2,000
Режим частоты кадров : Постоянный
Частота кадров : 23,976 (24000/1001) кадра/сек
Стандарт вещания : Component
Цветовое пространство : YUV
Субдискретизация насыщенности : 4:2:0
Битовая глубина : 8 бит
Тип развёртки : Прогрессивная
Бит/(Пиксели*Кадры) : 0.324
Размер потока : 4,36 Гбайт (92%)
Default : Да
Forced : Нет
Цветовой диапазон : Limited
Основные цвета : BT.709
Характеристики трансфера : BT.709
Коэффициенты матрицы : BT.709

Аудио
Идентификатор : 2
Формат : AC-3
Формат/Информация : Audio Coding 3
Расширение режима : CM (complete main)
Параметр Endianness формата : Big
Идентификатор кодека : A_AC3
Продолжительность : 1 ч. 38 м.
Вид битрейта : Постоянный
Битрейт : 448 Кбит/сек
Каналы : 2 канала
Расположение каналов : Front: L R
Частота : 48,0 КГц
Частота кадров : 31,250 кадров/сек (1536 spf)
Метод сжатия : С потерями
Размер потока : 314 Мбайт (6%)
Default : Да
Forced : Нет

pb.wtf



Скачать Громко бьются сердца через торрент https://d.radikal.ru/d00/1811/6c/a8d578cb7959.jpg Скачать фильм Громко бьются сердца через торрент бесплантно в хорошем качестве Описание: Владелец скромного музыкального магазина Фрэнк в одиночестве воспитывает дочь Сэм - темнокожую девушку-подростка с ... 7 10 3
Торрент: Зарегистрирован [2018-11-20 18:23] · скачан: 8 раз
Статус: # сомнительно
Размер: 4.76 GB
Как cкачать? Как скачать Громко бьются сердца через торрент | qTorrent

% Раздел Тема Автор DL S | L
T Фильмы (мультфильмы) cо спонсором показа (Новинки AVI/MKV) [ 1.37 GB ] Громко бьются сердца / Hearts Beat Loud [2018 музыка HDRip] MVO [Официальный звук] bober100 Скачать
1 | 0

28-11-2019 20:33  

Отключить всю рекламу на сайте


20-11-2018 18:59 Громко бьются сердца Скачать торрент  

надеюсь, сюжет полностью раскрыт - он воспитывате не просто

Цитата:

темнокожую девушку-подростка с ЛГБТ-взглядами

, а

Цитата:

темнокожую девушку-подростка

-карлицу, больную СПИДом,

Цитата:

с ЛГБТ-взглядами

, зачатую во время наркооргии с картелем мексиканцев?pb.wtf



20-11-2018 23:52 Громко бьются сердца Скачать торрент  

долбаные толерасты. даже добавить нечего к предыдущему оратору)pb.wtf



    Дорогой пользователь! Огромная просьба, поблагодарите релизера, оцените раздачу и оставьте свои комментарий, если Вы скачали Громко бьются сердца через торрент бесплатно! Внесите свою лепту в развитие PiratBit!
    Комментировать посты могут только пользователи прошедшие не сложную регистрацию
    Показать сообщения:    

    Громко бьются сердца через торрент
    Скачать бесплатно Громко бьются сердца
    Громко бьются сердца скачать торрент
    Громко бьются сердца смотреть онлайн
    Cкачать фильм Громко бьются сердца бесплатно
    Громко бьются сердца скачать торрент в хорошем качестве
    Громко бьются сердца смотреть онлайн бесплатно в хорошем качестве


    Вы не можете начинать темы
    Вы не можете отвечать на сообщения
    Вы не можете редактировать свои сообщения
    Вы не можете удалять свои сообщения
    Вы не можете голосовать в опросах
    Вы не можете прикреплять файлы к сообщениям
    Вы можете скачивать файлы