Ссылка на приватное зеркало нашего сайта всего за 1$. Внимание количество ограничено!!!

2 сезон

iTunes

1 сезон

1

2 сезон

2 сезон

iTunes

1 сезон

RePack

30

Ultimate

ВАЖНО

ИГРА 18+

pack

RePack

MK11
pack

Забери бонус

RePack

jed

!!Акция!!

Alien_Rage

RePack

fifa19

RePack

Assassins Creed: Odyssey

RePack

NEED FOR SPEED™ PAYBACK

4 сезон

9 сезон

Бесстыжие 9 сезон

Все сериалы

все сериалы на PB.wtf

RePack

FAR CRY 5
  

Очень английский скандал / Чрезвычайно английский скандал / A Very English Scandal / Сезон: 1 / Серии: 1-3 из 3 (Расселл Т. Дэвис, Джон Престон) [2018, драма, комедия, криминал, биография, HDTV 1080p] MVO [TVShows] pb.wtf

Очень английский скандал через торрент pb.wtf

Размер: 6.07 GB | Добавлен: 2 года назад | Торрент скачан:26 раз
Скачать  

21-11-2018 03:50 Очень английский скандал Скачать торрент  

Очень английский скандал / Чрезвычайно английский скандал / A Very English Scandal Год выпуска: 2018
Страна: Великобритания
Жанр: драма, комедия, криминал, биография
Продолжительность: ~00:55:00
Перевод: Профессиональный (многоголосый) | TVShows
Субтитры: отсутствуют

Режиссер: Расселл Т. Дэвис, Джон Престон

rating скриншот  

В ролях:

Хью Грант, Бен Уишоу, Алекс Дженнингс, Патриция Ходж, Пол Хилтон, Наоми Баттрик, Эндрю Френч, Морган Уоткинс, Моника Долан

Описание:

Действие сериала разворачивается в 60-е годы в Великобритании, когда гомосексуализм только-только перестаёт быть уголовно наказуемым преступлением. Джереми Торп — самый молодой партийный лидер в стране за последние сто лет и глава либеральной партии — отчаянно пытается скрыть правду о своей сексуальной ориентации. Но пока бывший любовник Торпа Норман Скотт знает его секрет, блестящая карьера политика находится под угрозой. Главный герой видит только один путь заставить Скотта замолчать навсегда...

Качество: HDTV 1080p
Формат: MKV

Видео: 1920x960 (2.000), 25.000 fps, MPEG-4 AVC ~4 505 kbps avg
Аудио#1: 48.0 kHz, AC3 Dolby Digital, 2/0 (L,R) ch, ~192 kbps | RUS / MVO
Аудио#2: 48.0 kHz, Advanced Audio Codec LC, 2/0 (L,R) ch, ~124 kbps | ENG
скриншот  скриншот  скриншот  скриншот  скриншот  

General
Unique ID : 155444144110278812914031855701381687031 (0x74F17403BF09899CA68355A5C17526F7)
Complete name : A.Very.English.Scandal.Part1.1080p.TVShows.mkv
Format : Matroska
Format version : Version 4 / Version 2
File size : 1.88 GiB
Duration : 55 min 45 s
Overall bit rate : 4 823 kb/s
Encoded date : UTC 2018-10-24 08:02:30
Writing application : mkvmerge v24.0.0 ('Beyond The Pale') 64-bit
Writing library : libebml v1.3.6 + libmatroska v1.4.9

Video
ID : 1
Format : AVC
Format/Info : Advanced Video Codec
Format profile : High@L4.1
Format settings, CABAC : Yes
Format settings, RefFrames : 4 frames
Codec ID : V_MPEG4/ISO/AVC
Duration : 55 min 45 s
Bit rate : 4 505 kb/s
Width : 1 920 pixels
Height : 960 pixels
Display aspect ratio : 2.000
Frame rate mode : Constant
Frame rate : 25.000 FPS
Color space : YUV
Chroma subsampling : 4:2:0
Bit depth : 8 bits
Scan type : Progressive
Bits/(Pixel*Frame) : 0.098
Stream size : 1.75 GiB (93%)
Writing library : x264 core 155 r2901 7d0ff22
Encoding settings : cabac=1 / ref=4 / deblock=1:-2:-2 / analyse=0x3:0x113 / me=hex / subme=8 / psy=1 / psy_rd=1.00:0.00 / mixed_ref=1 / me_range=16 / chroma_me=1 / trellis=2 / 8x8dct=1 / cqm=0 / deadzone=21,11 / fast_pskip=1 / chroma_qp_offset=-2 / threads=12 / lookahead_threads=2 / sliced_threads=0 / nr=0 / decimate=1 / interlaced=0 / bluray_compat=0 / constrained_intra=0 / bframes=3 / b_pyramid=2 / b_adapt=1 / b_bias=0 / direct=3 / weightb=1 / open_gop=0 / weightp=2 / keyint=250 / keyint_min=25 / scenecut=40 / intra_refresh=0 / rc_lookahead=50 / rc=crf / mbtree=1 / crf=18.0 / qcomp=0.60 / qpmin=0 / qpmax=69 / qpstep=4 / ip_ratio=1.40 / aq=1:1.00
Default : Yes
Forced : No
Color range : Limited
Matrix coefficients : BT.709

Audio #1
ID : 2
Format : AC-3
Format/Info : Audio Coding 3
Format settings, Endianness : Big
Codec ID : A_AC3
Duration : 55 min 45 s
Bit rate mode : Constant
Bit rate : 192 kb/s
Channel(s) : 2 channels
Channel positions : Front: L R
Sampling rate : 48.0 kHz
Frame rate : 31.250 FPS (1536 SPF)
Bit depth : 16 bits
Compression mode : Lossy
Stream size : 76.6 MiB (4%)
Title : TVShows
Language : Russian
Service kind : Complete Main
Default : Yes
Forced : Yes

Audio #2
ID : 3
Format : AAC
Format/Info : Advanced Audio Codec
Format profile : LC
Codec ID : A_AAC
Duration : 55 min 45 s
Bit rate : 124 kb/s
Channel(s) : 2 channels
Channel positions : Front: L R
Sampling rate : 48.0 kHz
Frame rate : 46.875 FPS (1024 SPF)
Compression mode : Lossy
Stream size : 49.4 MiB (3%)
Title : Original
Language : English
Default : No
Forced : No

pb.wtf



Скачать Очень английский скандал через торрент http://d.radikal.ru/d31/1811/cf/3b362f6b3c8d.png Скачать фильм Очень английский скандал через торрент бесплантно в хорошем качестве Описание: Действие сериала разворачивается в 60-е годы в Великобритании, когда гомосексуализм только-только перестаёт быть уголовно ... 10 10 2
Торрент: Зарегистрирован [2018-11-21 03:50] · скачан: 26 раз
Статус: √ проверено
Размер: 6.07 GB
Как cкачать? Как скачать Очень английский скандал через торрент | qTorrent

28-11-2019 20:33  

Отключить всю рекламу на сайте

    Дорогой пользователь! Огромная просьба, поблагодарите релизера, оцените раздачу и оставьте свои комментарий, если Вы скачали Очень английский скандал через торрент бесплатно! Внесите свою лепту в развитие PiratBit!
    Комментировать посты могут только пользователи прошедшие не сложную регистрацию
    Показать сообщения:    

    Очень английский скандал через торрент
    Скачать бесплатно Очень английский скандал
    Очень английский скандал скачать торрент
    Очень английский скандал смотреть онлайн
    Cкачать фильм Очень английский скандал бесплатно
    Очень английский скандал скачать торрент в хорошем качестве
    Очень английский скандал смотреть онлайн бесплатно в хорошем качестве


    Вы не можете начинать темы
    Вы не можете отвечать на сообщения
    Вы не можете редактировать свои сообщения
    Вы не можете удалять свои сообщения
    Вы не можете голосовать в опросах
    Вы не можете прикреплять файлы к сообщениям
    Вы можете скачивать файлы