Ссылка на приватное зеркало нашего сайта всего за 1$. Внимание количество ограничено!!!

2 сезон

iTunes

1 сезон

1

2 сезон

2 сезон

iTunes

1 сезон

RePack

30

Ultimate

ВАЖНО

ИГРА 18+

pack

RePack

MK11
pack

Забери бонус

RePack

jed

!!Акция!!

Alien_Rage

RePack

fifa19

RePack

Assassins Creed: Odyssey

RePack

NEED FOR SPEED™ PAYBACK

4 сезон

9 сезон

Бесстыжие 9 сезон

Все сериалы

все сериалы на PB.wtf

RePack

FAR CRY 5
  

Хорошая борьба / Правое дело / The Good Fight / Сезон: 2 / Серии: 1-13 из 13 (Брук Кеннеди) [2018, Драма, WEBRip 1080p] MVO [TVShows] pb.wtf

Хорошая борьба через торрент pb.wtf

Размер: 37.15 GB | Добавлен: 2 года назад | Торрент скачан:4 раза
Скачать  

21-11-2018 06:27 Хорошая борьба Скачать торрент  

Хорошая борьба | Правое дело | The Good Fight
• Год выпуска: 2018
• Страна: США
• Жанр: Драма
• Продолжительность: ~ 00:45:00
• Перевод: Профессиональный (многоголосый закадровый) | TVShows
• Субтитры: английские

• Режиссёр: Брук Кеннеди

rating

В ролях:

Кристин Барански, Джастин Барта, Каш Джамбо, Роуз Лесли, Делрой Линдо, Сара Стил, Эрика Н. Тэйзел

Описание:

Спин-офф сериала "Хорошая Жена", в котором ключевыми героями станут Диана Локхарт и Лукка Квин, которых мы знаем ещё со времён "Жены". Так же нас ждёт встреча с новыми, не менее интересными персонажами, и возвращение старых знакомых. Мы вновь совершим погружение в мир американской и мировой юриспруденции, политики, корпоративных интриг и человеческих страстей. Всё то, за что вы любили "Хорошую Жену" присутствует и в "Хорошей Борьбе", плюс много нового, свежего, увлекательного.

• Качество: WEBRip 1080p
• Формат: MKV

• Видео: 1920x1080 (16:9), 23.976 fps, MPEG-4 AVC ~6 710 kbps avg
• Аудио#1: 48.0 kHz, AC3 Dolby Digital, 3/2 (L,C,R,l,r) + LFE ch, ~384 kbps | RUS / MVO
• Аудио#2: 48.0 kHz, Enhanced Audio Coding 3, 3/2 (L,C,R,l,r) + LFE ch, ~640 kbps | ENG
скриншот  скриншот  скриншот  скриншот  скриншот  

General
Unique ID : 217893210709002308682842388670064498477 (0xA3ECB4B7100A7594508CE3D854EA172D)
Complete name : The.Good.Fight.S02E03.1080p.TVShows.mkv
Format : Matroska
Format version : Version 4 / Version 2
File size : 2.79 GiB
Duration : 51 min 42 s
Overall bit rate mode : Variable
Overall bit rate : 7 738 kb/s
Encoded date : UTC 2018-11-13 10:24:15
Writing application : mkvmerge v28.2.0 ('The Awakening') 64-bit
Writing library : libebml v1.3.6 + libmatroska v1.4.9

Video
ID : 1
Format : AVC
Format/Info : Advanced Video Codec
Format profile : High@L4
Format settings, CABAC : Yes
Format settings, RefFrames : 4 frames
Codec ID : V_MPEG4/ISO/AVC
Duration : 51 min 42 s
Bit rate mode : Variable
Bit rate : 6 711 kb/s
Maximum bit rate : 15.0 Mb/s
Width : 1 920 pixels
Original height : 1 080 pixels
Display aspect ratio : 16:9
Frame rate mode : Constant
Frame rate : 23.976 (24000/1001) FPS
Color space : YUV
Chroma subsampling : 4:2:0
Bit depth : 8 bits
Scan type : Progressive
Bits/(Pixel*Frame) : 0.152
Stream size : 2.42 GiB (87%)
Language : English
Default : Yes
Forced : No
Color range : Limited
Color primaries : BT.709
Transfer characteristics : BT.709
Matrix coefficients : BT.709

Audio #1
ID : 2
Format : AC-3
Format/Info : Audio Coding 3
Format settings, Endianness : Big
Codec ID : A_AC3
Duration : 51 min 42 s
Bit rate mode : Constant
Bit rate : 384 kb/s
Channel(s) : 6 channels
Channel positions : Front: L C R, Side: L R, LFE
Sampling rate : 48.0 kHz
Frame rate : 31.250 FPS (1536 SPF)
Bit depth : 16 bits
Compression mode : Lossy
Stream size : 142 MiB (5%)
Title : TVShows
Language : Russian
Service kind : Complete Main
Default : Yes
Forced : Yes

Audio #2
ID : 3
Format : E-AC-3
Format/Info : Enhanced Audio Coding 3
Format settings, Endianness : Big
Codec ID : A_EAC3
Duration : 51 min 42 s
Bit rate mode : Constant
Bit rate : 640 kb/s
Channel(s) : 6 channels
Channel positions : Front: L C R, Side: L R, LFE
Sampling rate : 48.0 kHz
Frame rate : 187.500 FPS (256 SPF)
Compression mode : Lossy
Stream size : 237 MiB (8%)
Title : Original
Language : English
Service kind : Complete Main
Default : No
Forced : No

Text
ID : 4
Format : UTF-8
Codec ID : S_TEXT/UTF8
Codec ID/Info : UTF-8 Plain Text
Duration : 50 min 20 s
Bit rate : 82 b/s
Count of elements : 1107
Stream size : 30.6 KiB (0%)
Title : English
Language : English
Default : No
Forced : No

pb.wtf



Скачать Хорошая борьба через торрент http://a.radikal.ru/a41/1811/3d/4ca258c47b36.png Скачать фильм Хорошая борьба через торрент бесплантно в хорошем качестве Описание: Спин-офф сериала "Хорошая Жена", в котором ключевыми героями станут Диана Локхарт и Лукка Квин, которых мы знаем ещё со времён ... 10 10 2
Info! Золотая раздача, скачанное не засчитывается.
Торрент: Зарегистрирован [2018-11-21 06:27] · скачан: 4 раз
Статус: √ проверено
Размер: 37.15 GB
Как cкачать? Как скачать Хорошая борьба через торрент | qTorrent

% Раздел Тема Автор DL S | L
Зарубежные сериалы [ 7.63 GB ] Хорошая борьба / Правое дело / The Good Fight / Сезон: 2 / Серии: 1-13 из 13 [2018 WEBRip] MVO [Jaskier] bober100 Скачать
1 | 0
Зарубежные сериалы [ 22.43 GB ] Хорошая борьба / Правое дело / The Good Fight / Сезон: 2 / Серии: 1-13 из 13 [2018 WEBRip 720p] MVO [Jaskier] bober100 Скачать
1 | 0
Зарубежные сериалы [ 8.89 GB ] Хорошая борьба / Правое дело / The Good Fight / Сезон: 2 / Серии: 1-13 из 13 [2018 WEB-DLRip] MVO [NewStudio] bober100 Скачать
1 | 0

28-11-2019 20:33  

Отключить всю рекламу на сайте

    Дорогой пользователь! Огромная просьба, поблагодарите релизера, оцените раздачу и оставьте свои комментарий, если Вы скачали Хорошая борьба через торрент бесплатно! Внесите свою лепту в развитие PiratBit!
    Комментировать посты могут только пользователи прошедшие не сложную регистрацию
    Показать сообщения:    

    Хорошая борьба через торрент
    Скачать бесплатно Хорошая борьба
    Хорошая борьба скачать торрент
    Хорошая борьба смотреть онлайн
    Cкачать фильм Хорошая борьба бесплатно
    Хорошая борьба скачать торрент в хорошем качестве
    Хорошая борьба смотреть онлайн бесплатно в хорошем качестве


    Вы не можете начинать темы
    Вы не можете отвечать на сообщения
    Вы не можете редактировать свои сообщения
    Вы не можете удалять свои сообщения
    Вы не можете голосовать в опросах
    Вы не можете прикреплять файлы к сообщениям
    Вы можете скачивать файлы