Ссылка на приватное зеркало всего за 1$. Внимание количество ограничено!!!

OK

1+1

iTunes

мы

OK

1

WEB-DLRip

Джокер

Пифагор

Ведьмак / The Witcher сериал

iTunes

ПШазам

ОК

Оно 2

iTunes

30
pack

Вам бонус

ВАЖНО

!!Акция!!

Alien_RageХит недели

RePack

Resident Evil 21

ИГРА 18+

pack

RePack

jed

RePack

fifa19

RePack

Assassins Creed: Odyssey

RePack

NEED FOR SPEED™ PAYBACK

4 сезон

9 сезон

Бесстыжие 9 сезон

Все сериалы

все сериалы на PB.wtf

RePack

FAR CRY 5
  

Смотри, если осмелишься / Watch If You Dare (Кристофер Дж. Мур) [2018 г., Ужасы, комедия, WEB-DLRip, Любительский (многоголосый)(Синема УС)] pb.wtf

Смотри, если осмелишься через торрент pb.wtf

Раздают: 1 [ 0 KB/s ]
Размер: 1.33 GB | Добавлен: 1 год 2 мес. назад | Торрент скачан:84 раза
Скачать  

21-11-2018 06:52 Смотри, если осмелишься Скачать торрент  

Смотри если осмелишься / Watch If You Dare
Год выпуска: 2018
Страна: США
Жанр: Ужасы, комедия
Продолжительность: 01:10:39
Перевод: Любительский (многоголосый)(Синема УС)
Субтитры: Отсутствуют

Режиссер: Кристофер Дж. Мур

rating

В ролях: Дэвид Берберян, Лилли Конклин, Трейси Коппедж, Дженнифер Эванс, Йель-Гриффин, Крис Голди, Том Гор, Джон Харли, Ник Карнер, Дженнифер Плас

Описание: Несколько историй, демонстрирующие самые тёмные закоулки человеческих душ и показывающие, что зло может поджидать за каждым углом. Готовы к незабываемым ощущениям? Тогда смотрите этот фильм...если осмелитесь.

Доп. информация: Присутствуют вставки текстовой рекламы

Качество: WEB-DLRip
Формат: AVI
Видео кодек: XviD
Аудио кодек: AC3
Видео: XviD, 720x400, ~1917 Kbps
Аудио#1: AC-3, 2 ch, 384 Kbps
скриншот   скриншот   скриншот   скриншот  

Общее
Полное имя : C:\_\Смотри, если осмелишься\Watch If You Dare 2018 WEB-DLRip.avi
Формат : AVI
Формат/Информация : Audio Video Interleave
Профиль формата : OpenDML
Размер файла : 1,33 Гбайт
Продолжительность : 1 ч. 10 м.
Общий поток : 2704 Кбит/сек

Видео
Идентификатор : 0
Формат : MPEG-4 Visual
Профиль формата : Advanced Simple@L5
Параметр BVOP формата : 2
Параметр QPel формата : Нет
Параметр GMC формата : Без точки перехода
Параметр матрицы формата : Выборочная
Идентификатор кодека : XVID
Идентификатор кодека/Подсказка : XviD
Продолжительность : 1 ч. 10 м.
Битрейт : 1917 Кбит/сек
Ширина : 720 пикселей
Высота : 400 пикселей
Соотношение сторон : 16:9
Частота кадров : 23,976 (24000/1001) кадра/сек
Цветовое пространство : YUV
Субдискретизация насыщенности : 4:2:0
Битовая глубина : 8 бит
Тип развёртки : Прогрессивная
Метод сжатия : С потерями
Бит/(Пиксели*Кадры) : 0.278
Размер потока : 969 Мбайт (71%)
Библиотека кодирования : XviD 1.2.1 (UTC 2008-12-04)

Аудио #1
Идентификатор : 1
Формат : AC-3
Формат/Информация : Audio Coding 3
Расширение режима : CM (complete main)
Параметр Endianness формата : Big
Идентификатор кодека : 2000
Продолжительность : 1 ч. 10 м.
Вид битрейта : Постоянный
Битрейт : 384 Кбит/сек
Каналы : 2 канала
Расположение каналов : Front: L R
Частота : 48,0 КГц
Частота кадров : 31,250 кадров/сек (1536 spf)
Метод сжатия : С потерями
Размер потока : 194 Мбайт (14%)
Выравнивание : Соединение по промежуткам
Продолжительность промежутка : 32 мс. (0,77 видеокадр)

Аудио #2
Идентификатор : 2
Формат : AC-3
Формат/Информация : Audio Coding 3
Расширение режима : CM (complete main)
Параметр Endianness формата : Big
Идентификатор кодека : 2000
Продолжительность : 1 ч. 10 м.
Вид битрейта : Постоянный
Битрейт : 384 Кбит/сек
Каналы : 2 канала
Расположение каналов : Front: L R
Частота : 48,0 КГц
Частота кадров : 31,250 кадров/сек (1536 spf)
Метод сжатия : С потерями
Размер потока : 194 Мбайт (14%)
Выравнивание : Соединение по промежуткам
Продолжительность промежутка : 32 мс. (0,77 видеокадр)

pb.wtf



Скачать Смотри, если осмелишься через торрент http://pic1.kartinco.top/images/11/wxoh5.jpg Скачать фильм Смотри, если осмелишься через торрент бесплантно в хорошем качестве Описание: Несколько историй, демонстрирующие самые тёмные закоулки человеческих душ и показывающие, что зло может поджидать за каждым ... 10 10 2
Торрент: Зарегистрирован [2018-11-21 06:52] · скачан: 84 раз
Статус: T временная
Размер: 1.33 GB
Как cкачать? Как скачать Смотри, если осмелишься через торрент | qTorrent

% Раздел Тема Автор DL S | L
T Фильмы (мультфильмы) cо спонсором показа (Новинки AVI/MKV) [ 2.55 GB ] Смотри если осмелишься / Watch If You Dare [2018 WEB-DL 720p] MVO ["Синема УС"] bober100 Скачать
2 | 0

28-11-2019 20:33  

Отключить всю рекламу на сайте

    Дорогой пользователь! Огромная просьба, поблагодарите релизера, оцените раздачу и оставьте свои комментарий, если Вы скачали Смотри, если осмелишься через торрент бесплатно! Внесите свою лепту в развитие PiratBit!
    Комментировать посты могут только пользователи прошедшие не сложную регистрацию
    Показать сообщения:    

    Смотри, если осмелишься через торрент
    Скачать бесплатно Смотри, если осмелишься
    Смотри, если осмелишься скачать торрент
    Смотри, если осмелишься смотреть онлайн
    Cкачать фильм Смотри, если осмелишься бесплатно
    Смотри, если осмелишься скачать торрент в хорошем качестве
    Смотри, если осмелишься смотреть онлайн бесплатно в хорошем качестве


    Вы не можете начинать темы
    Вы не можете отвечать на сообщения
    Вы не можете редактировать свои сообщения
    Вы не можете удалять свои сообщения
    Вы не можете голосовать в опросах
    Вы не можете прикреплять файлы к сообщениям
    Вы можете скачивать файлы