Marvel's Avengers Deluxe Edition (супер цена) 159р. Внимание количество ограничено!!!

2 сезон

iTunes

iTunes

1

iTunes

iTunes

iTunes

WEBRip

iTunes

30
pack

Новость дня

ВАЖНО

!!Акция!!

Alien_RageХит недели

RePack

Horizon Zero Dawn

ИГРА 18+

pack

RePack

jed

!!Акция!!

Alien_Rage

RePack

fifa19

RePack

Assassins Creed: Odyssey

RePack

NEED FOR SPEED™ PAYBACK

4 сезон

9 сезон

Бесстыжие 9 сезон

Все сериалы

все сериалы на PB.wtf

RePack

FAR CRY 5
  

Смотри, если осмелишься / Watch If You Dare (Кристофер Дж. Мур) [2018, Ужасы, WEB-DL 720p] MVO ["Синема УС"] pb.wtf

Смотри, если осмелишься через торрент pb.wtf

Раздают: 1 [ 0 KB/s ]
Размер: 2.55 GB | Добавлен: 1 год 9 мес. назад | Торрент скачан:100 раз
Скачать  

21-11-2018 07:48 Смотри, если осмелишься Скачать торрент  

Смотри, если осмелишься / Watch If You DareГод выпуска: 2018
Страна: США
Жанр: Ужасы
Продолжительность: 01:11:56
Перевод: Любительский (многоголосый) | "Синема УС"
Субтитры: отсутствуют

Режиссер: Кристофер Дж. Мур

rating

В ролях:

Ник Карнер, Дженнифер Плас

Описание:

Некоторые люди называют этот фильм одной из самых шокирующих лент 2018 года. Несколько историй, демонстрирующие самые тёмные закоулки человеческих душ и показывающие, что зло может поджидать за каждым углом. Готовы к незабываемым ощущениям? Тогда смотрите этот фильм...если осмелитесь.

Качество: WEB-DL 720p
Формат: MKV

Видео: h.264, 4 691 Кбит/с, 1280x720
Аудио#1: Русский, (AC3, 2 ch, 384 Кбит/с)
скриншот  скриншот  скриншот  

Общее
Уникальный идентификатор : 216086116557184230633542775991820137383 (0xA290AC1835389666A6671E33F310B3A7)
Полное имя : D:\Watch.If.You.Dare.2O18.P.WEB-DL.72Op.mkv
Формат : Matroska
Версия формата : Version 2
Размер файла : 2,55 Гбайт
Продолжительность : 1 ч. 11 м.
Режим общего битрейта : Переменный
Общий поток : 5076 Кбит/сек
Дата кодирования : UTC 2018-11-09 18:52:03
Программа кодирования : mkvmerge v8.3.0 ('Over the Horizon') 64bit
Библиотека кодирования : libebml v1.3.1 + libmatroska v1.4.2

Видео
Идентификатор : 1
Формат : AVC
Формат/Информация : Advanced Video Codec
Профиль формата : High@L4.1
Параметр CABAC формата : Да
Параметр RefFrames формата : 4 кадра
Идентификатор кодека : V_MPEG4/ISO/AVC
Продолжительность : 1 ч. 11 м.
Вид битрейта : Переменный
Битрейт : 4691 Кбит/сек
Максимальный битрейт : 5500 Кбит/сек
Ширина : 1280 пикселей
Высота : 720 пикселей
Соотношение сторон : 16:9
Режим частоты кадров : Постоянный
Частота кадров : 23,976 (24000/1001) кадра/сек
Стандарт вещания : Component
Цветовое пространство : YUV
Субдискретизация насыщенности : 4:2:0
Битовая глубина : 8 бит
Тип развёртки : Прогрессивная
Бит/(Пиксели*Кадры) : 0.208
Размер потока : 2,31 Гбайт (90%)
Default : Да
Forced : Нет
Цветовой диапазон : Limited
Основные цвета : BT.709
Характеристики трансфера : BT.709
Коэффициенты матрицы : BT.709

Аудио
Идентификатор : 2
Формат : AC-3
Формат/Информация : Audio Coding 3
Расширение режима : CM (complete main)
Параметр Endianness формата : Big
Идентификатор кодека : A_AC3
Продолжительность : 1 ч. 11 м.
Вид битрейта : Постоянный
Битрейт : 384 Кбит/сек
Каналы : 2 канала
Расположение каналов : Front: L R
Частота : 48,0 КГц
Частота кадров : 31,250 кадров/сек (1536 spf)
Метод сжатия : С потерями
Размер потока : 198 Мбайт (8%)
Default : Да
Forced : Нет

pb.wtf



Скачать Смотри, если осмелишься через торрент http://pic1.kartinco.top/images/11/wxoh5.jpg Скачать фильм Смотри, если осмелишься через торрент бесплантно в хорошем качестве Описание: Некоторые люди называют этот фильм одной из самых шокирующих лент 2018 года. Несколько историй, демонстрирующие самые тёмные ... 10 10 4
Торрент: Зарегистрирован [2018-11-21 07:48] · скачан: 100 раз
Статус: T временная
Размер: 2.55 GB
Как cкачать? Как скачать Смотри, если осмелишься через торрент | qTorrent

% Раздел Тема Автор DL S | L
T Фильмы (мультфильмы) cо спонсором показа (Новинки AVI/MKV) [ 1.33 GB ] Смотри если осмелишься / Watch If You Dare [2018 WEB-DLRip Любительский ] oleg8 Скачать
2 | 0

28-11-2019 20:33  

Отключить всю рекламу на сайте

    Дорогой пользователь! Огромная просьба, поблагодарите релизера, оцените раздачу и оставьте свои комментарий, если Вы скачали Смотри, если осмелишься через торрент бесплатно! Внесите свою лепту в развитие PiratBit!
    Комментировать посты могут только пользователи прошедшие не сложную регистрацию
    Показать сообщения:    

    Смотри, если осмелишься через торрент
    Скачать бесплатно Смотри, если осмелишься
    Смотри, если осмелишься скачать торрент
    Смотри, если осмелишься смотреть онлайн
    Cкачать фильм Смотри, если осмелишься бесплатно
    Смотри, если осмелишься скачать торрент в хорошем качестве
    Смотри, если осмелишься смотреть онлайн бесплатно в хорошем качестве


    Вы не можете начинать темы
    Вы не можете отвечать на сообщения
    Вы не можете редактировать свои сообщения
    Вы не можете удалять свои сообщения
    Вы не можете голосовать в опросах
    Вы не можете прикреплять файлы к сообщениям
    Вы можете скачивать файлы