1 сезон

3 сезон

iTunes

1

iTunes

DUB Netflix

iTunes

13

1 сезон

RePack

30

Deluxe

pack

Легкие деньги

ВАЖНО

ИГРА 18+

pack

RePack

MK11

RePack

jed

RePack

fifa19

RePack

RDR2

RePack

NEED FOR SPEED™ PAYBACK

4 сезон

9 сезон

Бесстыжие 9 сезон

Все сериалы

все сериалы на PB.wtf

RePack

FAR CRY 5

Anonymous, добрый вечер, мы не успеваем до 1 числа собрать деньги на оплату серверов, помогите нам пожалуйста в это трудное время. В качестве благодарности мы отключим Вам всю рекламу на сайте (укажите свой ник в строку Ваше имя)!

×
  
Magnet ссылка

Академик из Аскании (Владимир Герасимов) [1962, СССР, драма, биография, история, SATRip от AVP Studio] pb.wtf

Академик из Аскании через торрент pb.wtf

Размер: 1.09 GB | Добавлен: 2 года 6 мес. назад | Торрент скачан:6 раз
Скачать  

21-11-2018 09:00 Академик из Аскании Скачать торрент  

Академик из Аскании
Страна: СССР
Производство: Мосфильм

Жанр: драма, биография, история
Год выпуска: 1962
Продолжительность: 01:32:38

Перевод: Не требуется
Cубтитры: нет
Оригинальная аудиодорожка: русский

Режиссер: Владимир Герасимов

В ролях:
Сергей Яковлев, Любовь Соколова, Георгий Юматов, Олег Ефремов, Павел Массальский, Алексей Алексеев, Людмила Карауш, Владимир Гуляев, Андрей Тутышкин, Муза Крепкогорская, Николай Погодин, С. Минин, Владимир Липпарт...
Об актёрах подробней

Описание:
Остросюжетный фильм основан на реальных фактах из жизни советского ученого-зоотехника Михаила Федоровича Иванова (1871-1935), одного из основателей животноводства в СССР, автора асканийской породы овец и научной методики выведения новых пород свиней.

Исходник: DVB
Качество видео: SATRip
Формат видео: AVI

Видео: 704x528 (4:3), 25,000 кадров/сек, XviD ~ 1483 kbps avg, 0.160 bit/pixel
Аудио: 48 kHz, Dolby Digital AC3 2.0, 192 kbps

Раздача от:
Общее
Полное имя : Akademik.iz.Askanii.1962.SATRip_[New-team]_by_AVP_Studio.avi
Формат : AVI
Формат/Информация : Audio Video Interleave
Размер файла : 1,09 Гбайт
Продолжительность : 1 ч. 32 м.
Общий поток : 1685 Кбит/сек
Программа кодирования : VirtualDubMod 1.5.10.3 | www.virtualdub-fr.org || (build 2550/release)
Библиотека кодирования : VirtualDubMod build 2550/release

Видео
Идентификатор : 0
Формат : MPEG-4 Visual
Профиль формата : Advanced Simple@L5
Настройки формата : BVOP1 / Custom Matrix
Параметр BVOP формата : 1
Параметр QPel формата : Нет
Параметр GMC формата : Без точки перехода
Параметр матрицы формата : Выборочная
Идентификатор кодека : XVID
Идентификатор кодека/Подсказка : XviD
Продолжительность : 1 ч. 32 м.
Битрейт : 1483 Кбит/сек
Ширина : 704 пикселя
Высота : 528 пикселей
Соотношение сторон : 4:3
Частота кадров : 25,000 кадров/сек
Цветовое пространство : YUV
Субдискретизация насыщенности : 4:2:0
Битовая глубина : 8 бит
Тип развёртки : Прогрессивная
Метод сжатия : С потерями
Бит/(Пиксели*Кадры) : 0.160
Размер потока : 983 Мбайт (88%)
Библиотека кодирования : XviD 73

Аудио
Идентификатор : 1
Формат : AC-3
Формат/Информация : Audio Coding 3
Коммерческое название : Dolby Digital
Идентификатор кодека : 2000
Продолжительность : 1 ч. 32 м.
Вид битрейта : Постоянный
Битрейт : 192 Кбит/сек
Каналы : 2 канала
Channel layout : L R
Частота : 48,0 КГц
Частота кадров : 31,250 кадров/сек (1536 SPF)
Битовая глубина : 16 бит
Метод сжатия : С потерями
Размер потока : 127 Мбайт (11%)
Выравнивание : Разделение по промежуткам
Продолжительность промежутка : 40 мс. (1,00 видеокадр)
Время предзагрузки промежутка : 500 мс
pb.wtf



Скачать Академик из Аскании через торрент http://picplus.ru/img/1811/21/a9819097.png Скачать фильм Академик из Аскании через торрент бесплантно в хорошем качестве Описание:Остросюжетный фильм основан на реальных фактах из жизни советского ученого-зоотехника Михаила Федоровича Иванова (1871-1935), ... 5 10 1
Info! Золотая раздача, скачанное не засчитывается.
Торрент: Зарегистрирован [2018-11-21 09:00] · скачан: 6 раз
Статус: √ проверено
Размер: 1.09 GB
Как cкачать? Как скачать Академик из Аскании через торрент | UTorrent

% Раздел Тема Автор DL S | L
Кино СССР [ 1.09 GB ] Академик из Аскании [1962 СССР биография история SATRip-AVC от AVP Studio] AVP Studio Скачать
1 | 0

28-11-2019 20:33  

Отключить всю рекламу на сайте

    Дорогой пользователь! Огромная просьба, поблагодарите релизера, оцените раздачу и оставьте свои комментарий, если Вы скачали Академик из Аскании через торрент бесплатно! Внесите свою лепту в развитие PiratBit!
    Комментировать посты могут только пользователи прошедшие не сложную регистрацию
    Показать сообщения:    

    Академик из Аскании через торрент
    Скачать бесплатно Академик из Аскании
    Академик из Аскании скачать торрент
    Академик из Аскании смотреть онлайн
    Cкачать фильм Академик из Аскании бесплатно
    Академик из Аскании скачать торрент в хорошем качестве
    Академик из Аскании смотреть онлайн бесплатно в хорошем качестве


    Вы не можете начинать темы
    Вы не можете отвечать на сообщения
    Вы не можете редактировать свои сообщения
    Вы не можете удалять свои сообщения
    Вы не можете голосовать в опросах
    Вы не можете прикреплять файлы к сообщениям
    Вы можете скачивать файлы