Ссылка на приватное зеркало всего за 1$. Внимание количество ограничено!!!

OK

1+1

iTunes

мы

OK

1

WEB-DLRip

Джокер

Пифагор

Ведьмак / The Witcher сериал

iTunes

ПШазам

ОК

Оно 2

iTunes

30
pack

Вам бонус

ВАЖНО

!!Акция!!

Alien_RageХит недели

RePack

Resident Evil 21

ИГРА 18+

pack

RePack

jed

RePack

fifa19

RePack

Assassins Creed: Odyssey

RePack

NEED FOR SPEED™ PAYBACK

4 сезон

9 сезон

Бесстыжие 9 сезон

Все сериалы

все сериалы на PB.wtf

RePack

FAR CRY 5
  

Пазл / Puzzle (Марк Тёртлтауб) [2018, драма, WEB-DL 720p] MVO [AlphaProject] pb.wtf

Пазл через торрент pb.wtf

Размер: 3.89 GB | Добавлен: 1 год 2 мес. назад | Торрент скачан:6 раз
Скачать  

21-11-2018 16:23 Пазл Скачать торрент  

Пазл / PuzzleГод выпуска: 2018
Страна: США
Жанр: драма
Продолжительность: 01:45:51
Перевод: Любительский (многоголосый) | AlphaProject
Субтитры: отсутствуют

Режиссер: Марк Тёртлтауб

rating

В ролях:

Келли Макдоналд, Ирфан Кхан, Дэвид Денман, Дэниэл Стюарт-Шерман, Остин Абрамс, Бабба Уейлер, Хелен Кокс, Мандела Беллами, Лив Хьюсон, Лори Хэммел

Описание:

У Агнес всегда был талант к собиранию пазлов. Однажды она решает сбежать из уютного и тихого пригорода и отправиться в Нью-Йорк, откуда вместе с новым партнером планирует попасть в Атлантик-Сити, где проходит чемпионат по пазлам. Новообретенная независимость помогает ей увидеть свою жизнь в новом свете.

Качество: WEB-DL 720p
Формат: MKV

Видео: h.264, 4 881 kb/s, 1280x532
Аудио#1: Русский, (AC3, 2 ch, 384 Кбит/с)
скриншот  скриншот  скриншот  

Общее
Уникальный идентификатор : 200246824685612065893324705388922167502 (0x96A622B639DB5505961C9AE8CDD060CE)
Полное имя : D:\Puzzle.2018.Pa.WEB-DL.72Op_KOSHARA.mkv
Формат : Matroska
Версия формата : Version 2
Размер файла : 3,89 Гбайт
Продолжительность : 1 ч. 45 м.
Режим общего битрейта : Переменный
Общий поток : 5267 Кбит/сек
Дата кодирования : UTC 2018-11-21 11:25:07
Программа кодирования : mkvmerge v8.3.0 ('Over the Horizon') 64bit
Библиотека кодирования : libebml v1.3.1 + libmatroska v1.4.2

Видео
Идентификатор : 1
Формат : AVC
Формат/Информация : Advanced Video Codec
Профиль формата : High@L4.1
Параметр CABAC формата : Да
Параметр RefFrames формата : 4 кадра
Идентификатор кодека : V_MPEG4/ISO/AVC
Продолжительность : 1 ч. 45 м.
Вид битрейта : Переменный
Битрейт : 4881 Кбит/сек
Максимальный битрейт : 5500 Кбит/сек
Ширина : 1280 пикселей
Высота : 532 пикселя
Соотношение сторон : 2,40:1
Режим частоты кадров : Постоянный
Частота кадров : 23,976 (24000/1001) кадра/сек
Стандарт вещания : Component
Цветовое пространство : YUV
Субдискретизация насыщенности : 4:2:0
Битовая глубина : 8 бит
Тип развёртки : Прогрессивная
Бит/(Пиксели*Кадры) : 0.293
Размер потока : 3,53 Гбайт (91%)
Default : Да
Forced : Нет
Цветовой диапазон : Limited
Основные цвета : BT.709
Характеристики трансфера : BT.709
Коэффициенты матрицы : BT.709

Аудио
Идентификатор : 2
Формат : AC-3
Формат/Информация : Audio Coding 3
Расширение режима : CM (complete main)
Параметр Endianness формата : Big
Идентификатор кодека : A_AC3
Продолжительность : 1 ч. 45 м.
Вид битрейта : Постоянный
Битрейт : 384 Кбит/сек
Каналы : 2 канала
Расположение каналов : Front: L R
Частота : 48,0 КГц
Частота кадров : 31,250 кадров/сек (1536 spf)
Метод сжатия : С потерями
Размер потока : 291 Мбайт (7%)
Default : Да
Forced : Нет

pb.wtf



Скачать Пазл через торрент https://i107.fastpic.ru/big/2018/1121/aa/648d34e2d3d544a06cf4be2b68e22aaa.jpg Скачать фильм Пазл через торрент бесплантно в хорошем качестве Описание: У Агнес всегда был талант к собиранию пазлов. Однажды она решает сбежать из уютного и тихого пригорода и отправиться в Нью-Йорк, ... 10 10 2
Торрент: Зарегистрирован [2018-11-21 16:23] · скачан: 6 раз
Статус: T временная
Размер: 3.89 GB
Как cкачать? Как скачать Пазл через торрент | qTorrent

% Раздел Тема Автор DL S | L
T Фильмы (мультфильмы) cо спонсором показа (Новинки AVI/MKV) [ 4.32 GB ] Пазл / Puzzle [2018 WEB-DL 1080p] MVO [AlphaProject] bober100 Скачать
1 | 0
T Фильмы (мультфильмы) cо спонсором показа (Новинки AVI/MKV) [ 1.37 GB ] Пазл / Puzzle [2018 WEB-DLRip] MVO [AlphaProject] bober100 Скачать
1 | 0
Фильмы (DVD фильмы) [ 5.62 GB ] Пазл любви / Puzzled Love [2010 DVD9] R5 MVO + Original + Sub voovaz Скачать
1 | 0

28-11-2019 20:33  

Отключить всю рекламу на сайте

    Дорогой пользователь! Огромная просьба, поблагодарите релизера, оцените раздачу и оставьте свои комментарий, если Вы скачали Пазл через торрент бесплатно! Внесите свою лепту в развитие PiratBit!
    Комментировать посты могут только пользователи прошедшие не сложную регистрацию
    Показать сообщения:    

    Пазл через торрент
    Скачать бесплатно Пазл
    Пазл скачать торрент
    Пазл смотреть онлайн
    Cкачать фильм Пазл бесплатно
    Пазл скачать торрент в хорошем качестве
    Пазл смотреть онлайн бесплатно в хорошем качестве


    Вы не можете начинать темы
    Вы не можете отвечать на сообщения
    Вы не можете редактировать свои сообщения
    Вы не можете удалять свои сообщения
    Вы не можете голосовать в опросах
    Вы не можете прикреплять файлы к сообщениям
    Вы можете скачивать файлы