Ссылка на приватное зеркало нашего сайта всего за 1$. Внимание количество ограничено!!!

2 сезон

iTunes

1 сезон

1

iTunes

iTunes

iTunes

1 сезон

RePack

30

ИГРА 18+

pack

ВАЖНО

!!Акция!!

Alien_RageХит недели

RePack

MK11
pack

Забери бонус

RePack

jed

!!Акция!!

Alien_Rage

RePack

fifa19

RePack

Assassins Creed: Odyssey

RePack

NEED FOR SPEED™ PAYBACK

4 сезон

9 сезон

Бесстыжие 9 сезон

Все сериалы

все сериалы на PB.wtf

RePack

FAR CRY 5
  

Кто ты? / Сезон: 1 / Серии: 1-16 из 16 (Анатолий Матешко) [2018, Детектив, SATRip-AVC] pb.wtf

Кто ты? через торрент pb.wtf

Размер: 8.41 GB | Добавлен: 1 год 10 мес. назад | Торрент скачан:101 раз
Скачать  

21-11-2018 17:07 Кто ты? Скачать торрент  

Кто ты?Год выпуска: 2018
Страна: Россия, Украина
Жанр: Детектив
Продолжительность: ~ 00:45:00
Субтитры: Украинские

Режиссер: Анатолий Матешко

В ролях:

Екатерина Кузнецова, Антон Батырев, Ярослав Гуревич, Игорь Пазыч, Мирослав Павличенко, Анастасия Матешко, Олег Примогенов, Ренат Сеттаров

Описание:

История о психотерапевте Инге Штефан, перешедшей в криминальный профайлинг после странной гибели нескольких ее пациентов, а ранее – исчезновения жениха. Параллельно со своим расследованием Инга работает с убойным отделом Главка полиции. В ходе развития сюжета героиня узнает, что за ней много лет следит маньяк, виновный не только в смертях ее пациентов и жениха...

Качество: SATRip
Формат: MKV

Видео: MPEG-4 AVC, ~ 1500 Кбит/с, 720x400, 25 кадр/с
Аудио: AC3, 2 ch, 192 Кбит/с
скриншот  скриншот  скриншот  скриншот  

Общее
Уникальный идентификатор : 204096406402638887760231879031500107489 (0x998B89BE83A683C1BD21988C82ACEEE1)
Полное имя : D:\Кто ты.(2018).SATRip.(AVC).Files-x\01.Кто ты.(2018).SATRip.(AVC).by.Серый1779.Files-x.mkv
Формат : Matroska
Версия формата : Version 2
Размер файла : 531 Мбайт
Продолжительность : 43 м. 50 с.
Общий поток : 1694 Кбит/сек
Дата кодирования : UTC 2018-11-20 05:21:24
Программа кодирования : mkvmerge v7.8.0 ('River Man') 32bit built on Apr 3 2015 12:11:22
Библиотека кодирования : libebml v1.3.1 + libmatroska v1.4.2

Видео
Идентификатор : 1
Формат : AVC
Формат/Информация : Advanced Video Codec
Профиль формата : High@L4.1
Параметр CABAC формата : Да
Параметр RefFrames формата : 9 кадров
Идентификатор кодека : V_MPEG4/ISO/AVC
Продолжительность : 43 м. 50 с.
Битрейт : 1500 Кбит/сек
Ширина : 720 пикселей
Высота : 400 пикселей
Соотношение сторон : 16:9
Режим частоты кадров : Постоянный
Частота кадров : 25,000 кадров/сек
Цветовое пространство : YUV
Субдискретизация насыщенности : 4:2:0
Битовая глубина : 8 бит
Тип развёртки : Прогрессивная
Бит/(Пиксели*Кадры) : 0.208
Размер потока : 460 Мбайт (87%)
Библиотека кодирования : x264 core 146 r2538 121396c
Настройки программы : cabac=1 / ref=9 / deblock=1:-3:-3 / analyse=0x3:0x133 / me=umh / subme=9 / psy=1 / psy_rd=1.00:0.15 / mixed_ref=1 / me_range=32 / chroma_me=1 / trellis=2 / 8x8dct=1 / cqm=0 / deadzone=21,11 / fast_pskip=0 / chroma_qp_offset=-3 / threads=18 / lookahead_threads=3 / sliced_threads=0 / nr=0 / decimate=1 / interlaced=0 / bluray_compat=0 / constrained_intra=0 / bframes=9 / b_pyramid=2 / b_adapt=2 / b_bias=0 / direct=1 / weightb=1 / open_gop=0 / weightp=2 / keyint=250 / keyint_min=25 / scenecut=40 / intra_refresh=0 / rc=2pass / mbtree=0 / bitrate=1500 / ratetol=1.0 / qcomp=0.60 / qpmin=0 / qpmax=69 / qpstep=4 / cplxblur=20.0 / qblur=0.5 / ip_ratio=1.40 / pb_ratio=1.30 / aq=2:1.00
Default : Да
Forced : Нет
Цветовой диапазон : Limited
Основные цвета : BT.601 PAL
Характеристики трансфера : BT.470 System B, BT.470 System G
Коэффициенты матрицы : BT.601

Аудио
Идентификатор : 2
Формат : AC-3
Формат/Информация : Audio Coding 3
Расширение режима : CM (complete main)
Параметр Endianness формата : Big
Идентификатор кодека : A_AC3
Продолжительность : 43 м. 50 с.
Вид битрейта : Постоянный
Битрейт : 192 Кбит/сек
Каналы : 2 канала
Расположение каналов : Front: L R
Частота : 48,0 КГц
Частота кадров : 31,250 кадров/сек (1536 spf)
Метод сжатия : С потерями
Размер потока : 60,2 Мбайт (11%)
Default : Да
Forced : Нет

Внимание! Раздача ведётся путём добавления новых серий; при каждом добавлении создаётся новый торрент. Чтобы начать докачку новой серии, пользователям необходимо сделать следующее:

Остановить скачивание.

Удалить старый торрент у себя из клиента (старые серии удалять не надо).

Скачать новый торрент и запустить его у себя в клиенте вместо старого, при этом указать клиенту путь в старую папку куда и должно происходить скачивание новых серий.

Ваш клиент при этом должен произвести хеширование (проверку) старой папки (если не производит сам - помогите ему сделать это), и будет докачивать только те серии которых у вас ещё нет. Старые серии при этом не удаляются, а продолжают раздаваться!

Eсли вы уже удалили старые серии, то предотвратить повторную закачку старых серий можно, отжав галочку в соответсвующих местах при запуске нового торрента. По возможности, желательно не удалять старые серии как можно дольше чтобы релизёр не столько продолжал раздавать старые серии, а смог сконцентрироваться на новых.
pb.wtf



Скачать Кто ты? через торрент http://picplus.ru/img/1811/19/a29b81dc.jpg Скачать фильм Кто ты? через торрент бесплантно в хорошем качестве Описание: История о психотерапевте Инге Штефан, перешедшей в криминальный профайлинг после странной гибели нескольких ее пациентов, а ранее ... 7 10 5
Торрент: Зарегистрирован [2018-11-30 09:41] · скачан: 101 раз
Статус: √ проверено
Размер: 8.41 GB
Как cкачать? Как скачать Кто ты? через торрент | qTorrent

28-11-2019 20:33  

Отключить всю рекламу на сайте

    Дорогой пользователь! Огромная просьба, поблагодарите релизера, оцените раздачу и оставьте свои комментарий, если Вы скачали Кто ты? через торрент бесплатно! Внесите свою лепту в развитие PiratBit!
    Комментировать посты могут только пользователи прошедшие не сложную регистрацию
    Показать сообщения:    

    Кто ты? через торрент
    Скачать бесплатно Кто ты?
    Кто ты? скачать торрент
    Кто ты? смотреть онлайн
    Cкачать фильм Кто ты? бесплатно
    Кто ты? скачать торрент в хорошем качестве
    Кто ты? смотреть онлайн бесплатно в хорошем качестве


    Вы не можете начинать темы
    Вы не можете отвечать на сообщения
    Вы не можете редактировать свои сообщения
    Вы не можете удалять свои сообщения
    Вы не можете голосовать в опросах
    Вы не можете прикреплять файлы к сообщениям
    Вы можете скачивать файлы