Ссылка на приватное зеркало всего за 1$. Внимание количество ограничено!!!

OK

1+1

iTunes

мы

OK

1

WEB-DLRip

Джокер

Пифагор

Ведьмак / The Witcher сериал

Лицензия

ПШазам

ОК

Оно 2

iTunes

30
pack

Вам бонус

ВАЖНО

!!Акция!!

Alien_RageХит недели

RePack

Resident Evil 21

ИГРА 18+

pack

RePack

jed

!!Акция!!

Alien_Rage

RePack

fifa19

RePack

Assassins Creed: Odyssey

RePack

NEED FOR SPEED™ PAYBACK

4 сезон

9 сезон

Бесстыжие 9 сезон

Все сериалы

все сериалы на PB.wtf

RePack

FAR CRY 5
  

Сеанс в приёмном доме / Foster Home Seance (Фрэнк Пауэрс) [2018, Ужасы, WEB-DL 720p] MVO ["Синема УС"] pb.wtf

Сеанс в приёмном доме через торрент pb.wtf

Размер: 2.57 GB | Добавлен: 1 год 2 мес. назад | Торрент скачан:13 раз
Скачать  

21-11-2018 18:22 Сеанс в приёмном доме Скачать торрент  

Сеанс в приёмном доме / Foster Home SeanceГод выпуска: 2018
Страна: США
Жанр: Ужасы
Продолжительность: 01:12:13
Перевод: Любительский (многоголосый) | "Синема УС"
Субтитры: отсутствуют

Режиссер: Фрэнк Пауэрс

rating

В ролях:

Фрэнк Пауэрс, Мишель Мартинес, Гонсало Роблз, Джек Лутс, , Джерри Уокер, Кэссиди Пауэрс, Элизабет Е. Гонсалес, Джульц Мартинес IV, Дж. Р. Флорес

Описание:

Бывшие воспитанники приёмного собираются вместе через 27 лет после его закрытия, чтобы провести сеанс спиритического общения с умершим братом, но сталкиваются с демоном из городских легенд.

Качество: WEB-DL 720p
Формат: MKV

Видео: h.264, 4 633 kb/s, 1280x576
Аудио#1: Русский, (AC3, 2 ch, 384 Кбит/с)
скриншот  скриншот  скриншот  

Общее
Уникальный идентификатор : 182001159011607760805515702233144815198 (0x88EC25F0C966B35299F429C39FECEE5E)
Полное имя : D:\Foster.Home.Seance.2018.P.WEB-DL.72Op_KOSHARA.mkv
Формат : Matroska
Версия формата : Version 2
Размер файла : 2,57 Гбайт
Продолжительность : 1 ч. 13 м.
Режим общего битрейта : Переменный
Общий поток : 5019 Кбит/сек
Дата кодирования : UTC 2018-11-20 18:13:23
Программа кодирования : mkvmerge v8.3.0 ('Over the Horizon') 64bit
Библиотека кодирования : libebml v1.3.1 + libmatroska v1.4.2

Видео
Идентификатор : 1
Формат : AVC
Формат/Информация : Advanced Video Codec
Профиль формата : High@L4.1
Параметр CABAC формата : Да
Параметр RefFrames формата : 4 кадра
Идентификатор кодека : V_MPEG4/ISO/AVC
Продолжительность : 1 ч. 13 м.
Вид битрейта : Переменный
Битрейт : 4633 Кбит/сек
Максимальный битрейт : 6000 Кбит/сек
Ширина : 1280 пикселей
Высота : 576 пикселей
Соотношение сторон : 2,222
Режим частоты кадров : Постоянный
Частота кадров : 23,976 (24000/1001) кадра/сек
Стандарт вещания : Component
Цветовое пространство : YUV
Субдискретизация насыщенности : 4:2:0
Битовая глубина : 8 бит
Тип развёртки : Прогрессивная
Бит/(Пиксели*Кадры) : 0.257
Размер потока : 2,32 Гбайт (90%)
Default : Да
Forced : Нет
Цветовой диапазон : Limited
Основные цвета : BT.709
Характеристики трансфера : BT.709
Коэффициенты матрицы : BT.709

Аудио
Идентификатор : 2
Формат : AC-3
Формат/Информация : Audio Coding 3
Расширение режима : CM (complete main)
Параметр Endianness формата : Big
Идентификатор кодека : A_AC3
Продолжительность : 1 ч. 13 м.
Вид битрейта : Постоянный
Битрейт : 384 Кбит/сек
Каналы : 2 канала
Расположение каналов : Front: L R
Частота : 48,0 КГц
Частота кадров : 31,250 кадров/сек (1536 spf)
Метод сжатия : С потерями
Размер потока : 201 Мбайт (8%)
Default : Да
Forced : Нет

pb.wtf



Скачать Сеанс в приёмном доме через торрент https://i107.fastpic.ru/big/2018/1121/5a/de34155e8535ed8c5f052be36cad555a.jpg Скачать фильм Сеанс в приёмном доме через торрент бесплантно в хорошем качестве Описание: Бывшие воспитанники приёмного собираются вместе через 27 лет после его закрытия, чтобы провести сеанс спиритического общения с ... 10 10 3
Торрент: Зарегистрирован [2018-11-21 18:22] · скачан: 13 раз
Статус: T временная
Размер: 2.57 GB
Как cкачать? Как скачать Сеанс в приёмном доме через торрент | qTorrent

% Раздел Тема Автор DL S | L
T Фильмы (мультфильмы) cо спонсором показа (Новинки AVI/MKV) [ 1.37 GB ] Сеанс в приёмном доме / Foster Home Seance [2018 WEB-DLRip] MVO ["Синема УС"] bober100 Скачать
1 | 0

28-11-2019 20:33  

Отключить всю рекламу на сайте

    Дорогой пользователь! Огромная просьба, поблагодарите релизера, оцените раздачу и оставьте свои комментарий, если Вы скачали Сеанс в приёмном доме через торрент бесплатно! Внесите свою лепту в развитие PiratBit!
    Комментировать посты могут только пользователи прошедшие не сложную регистрацию
    Показать сообщения:    

    Сеанс в приёмном доме через торрент
    Скачать бесплатно Сеанс в приёмном доме
    Сеанс в приёмном доме скачать торрент
    Сеанс в приёмном доме смотреть онлайн
    Cкачать фильм Сеанс в приёмном доме бесплатно
    Сеанс в приёмном доме скачать торрент в хорошем качестве
    Сеанс в приёмном доме смотреть онлайн бесплатно в хорошем качестве


    Вы не можете начинать темы
    Вы не можете отвечать на сообщения
    Вы не можете редактировать свои сообщения
    Вы не можете удалять свои сообщения
    Вы не можете голосовать в опросах
    Вы не можете прикреплять файлы к сообщениям
    Вы можете скачивать файлы