Ссылка на приватное зеркало всего за 1$. Внимание количество ограничено!!!

OK

1+1

iTunes

мы

OK

1

WEB-DLRip

Джокер

Пифагор

Ведьмак / The Witcher сериал

iTunes

ПШазам

ОК

Оно 2

iTunes

30
pack

Вам бонус

ВАЖНО

!!Акция!!

Alien_RageХит недели

RePack

Resident Evil 21

ИГРА 18+

pack

RePack

jed

RePack

fifa19

RePack

Assassins Creed: Odyssey

RePack

NEED FOR SPEED™ PAYBACK

4 сезон

9 сезон

Бесстыжие 9 сезон

Все сериалы

все сериалы на PB.wtf

RePack

FAR CRY 5
  

Волк-вожак / Alpha Wolf (Дэвид Джексон) [2018, ужасы, триллер, WEB-DL 720p] MVO ["Синема УС"] pb.wtf

Волк-вожак через торрент pb.wtf

Размер: 3.23 GB | Добавлен: 1 год 2 мес. назад | Торрент скачан:36 раз
Скачать  

21-11-2018 18:51 Волк-вожак Скачать торрент  

Волк-вожак / Alpha WolfГод выпуска: 2018
Страна: США
Жанр: ужасы, триллер
Продолжительность: 01:28:22
Перевод: Любительский (многоголосый) | "Синема УС"
Субтитры: отсутствуют

Режиссер: Дэвид Джексон

rating

В ролях:

Шейн П. Аллен, Дирк Эллис, Тайлер Галлант

Описание:

Во время отдыха в доме, окруженном лесом, Вирджиния и ее муж Джек подвергаются нападению монстра. И, пусть атаку каждый пережил по-своему, но в Джеке она пробуждает худшие стороны.

Качество: WEB-DL 720p
Формат: MKV

Видео: h.264, 4 854 kb/s, 1280x720
Аудио#1: Русский, (AC3, 2 ch, 384 Кбит/с)
скриншот  скриншот  скриншот  

Общее
Уникальный идентификатор : 187387682572440028155011266077385279646 (0x8CF98E0E6BFB404FA2A00A3A579BC89E)
Полное имя : D:\Alpha.Wolf.2O18.P.WEB-DL.72Op_KOSHARA.mkv
Формат : Matroska
Версия формата : Version 2
Размер файла : 3,23 Гбайт
Продолжительность : 1 ч. 28 м.
Режим общего битрейта : Переменный
Общий поток : 5240 Кбит/сек
Дата кодирования : UTC 2018-11-21 11:02:15
Программа кодирования : mkvmerge v8.3.0 ('Over the Horizon') 64bit
Библиотека кодирования : libebml v1.3.1 + libmatroska v1.4.2

Видео
Идентификатор : 1
Формат : AVC
Формат/Информация : Advanced Video Codec
Профиль формата : High@L4.1
Параметр CABAC формата : Да
Параметр RefFrames формата : 4 кадра
Идентификатор кодека : V_MPEG4/ISO/AVC
Продолжительность : 1 ч. 28 м.
Вид битрейта : Переменный
Битрейт : 4854 Кбит/сек
Максимальный битрейт : 5500 Кбит/сек
Ширина : 1280 пикселей
Высота : 720 пикселей
Соотношение сторон : 16:9
Режим частоты кадров : Постоянный
Частота кадров : 23,976 (24000/1001) кадра/сек
Стандарт вещания : Component
Цветовое пространство : YUV
Субдискретизация насыщенности : 4:2:0
Битовая глубина : 8 бит
Тип развёртки : Прогрессивная
Бит/(Пиксели*Кадры) : 0.215
Размер потока : 2,93 Гбайт (91%)
Default : Да
Forced : Нет
Цветовой диапазон : Limited
Основные цвета : BT.709
Характеристики трансфера : BT.709
Коэффициенты матрицы : BT.709

Аудио
Идентификатор : 2
Формат : AC-3
Формат/Информация : Audio Coding 3
Расширение режима : CM (complete main)
Параметр Endianness формата : Big
Идентификатор кодека : A_AC3
Продолжительность : 1 ч. 28 м.
Вид битрейта : Постоянный
Битрейт : 384 Кбит/сек
Каналы : 2 канала
Расположение каналов : Front: L R
Частота : 48,0 КГц
Частота кадров : 31,250 кадров/сек (1536 spf)
Метод сжатия : С потерями
Размер потока : 243 Мбайт (7%)
Default : Да
Forced : Нет

pb.wtf



Скачать Волк-вожак через торрент https://i107.fastpic.ru/big/2018/1121/39/f0c8763a45eb377ee2241b301e798839.jpg Скачать фильм Волк-вожак через торрент бесплантно в хорошем качестве Описание: Во время отдыха в доме, окруженном лесом, Вирджиния и ее муж Джек подвергаются нападению монстра. И, пусть атаку каждый пережил ... 10 10 2
Торрент: Зарегистрирован [2018-11-21 18:51] · скачан: 36 раз
Статус: T временная
Размер: 3.23 GB
Как cкачать? Как скачать Волк-вожак через торрент | qTorrent

% Раздел Тема Автор DL S | L
T Фильмы (мультфильмы) cо спонсором показа (Новинки AVI/MKV) [ 1.37 GB ] Волк-вожак / Alpha Wolf [2018 WEB-DLRip] MVO ["Синема УС"] bober100 Скачать
1 | 0

28-11-2019 20:33  

Отключить всю рекламу на сайте


22-11-2018 06:40 Волк-вожак Скачать торрент  

А почему в описании одни актёры, а на обложке другие?pb.wtf



    Дорогой пользователь! Огромная просьба, поблагодарите релизера, оцените раздачу и оставьте свои комментарий, если Вы скачали Волк-вожак через торрент бесплатно! Внесите свою лепту в развитие PiratBit!
    Комментировать посты могут только пользователи прошедшие не сложную регистрацию
    Показать сообщения:    

    Волк-вожак через торрент
    Скачать бесплатно Волк-вожак
    Волк-вожак скачать торрент
    Волк-вожак смотреть онлайн
    Cкачать фильм Волк-вожак бесплатно
    Волк-вожак скачать торрент в хорошем качестве
    Волк-вожак смотреть онлайн бесплатно в хорошем качестве


    Вы не можете начинать темы
    Вы не можете отвечать на сообщения
    Вы не можете редактировать свои сообщения
    Вы не можете удалять свои сообщения
    Вы не можете голосовать в опросах
    Вы не можете прикреплять файлы к сообщениям
    Вы можете скачивать файлы