Ребята, если до конца года каждый наш пользователь пожертвует хотя бы 10 рублей, нам хватит денег оплатить все наши расходы.

iTunes

iTunes

Миссия невыполнима: Последствия

iTunes

Поиск

4 сезон

дом

MVO

venom

iTunes

Багровая мята

iTunes

Проклятие монахини

iTunes

Человек на Луне

ИГРА 18+

pack

RePack

Battlefield V Хит недели

RePack

Assassins Creed: Odyssey
pack

RePack

Darksiders 3

iTunes 4K

Миссия невыполнима: Последствия

RePack

fifa19

!!Акция!!

Alien_RageХит недели

RePack

NEED FOR SPEED™ PAYBACK

SATRip

9 сезон

Бесстыжие 9 сезон

Все сериалы

все сериалы на PB.wtf

iTunes

Мэнди

RePack

FAR CRY 5
  

Маленький незнакомец / The Little Stranger (Леонард Абрахамсон / Lenny Abrahamson) [2018, драма, триллер, мелодрама, WEB-DLRip-AVC] DVO [HiWay Grope]

Маленький незнакомец через торрент

Раздают: 243 [ 265 KB/s ] Качают: 7 [ 552 KB/s ]
Размер: 1.42 GB | Добавлен: 27 д. назад | Торрент скачан:42 раза
Скачать  

21-11-2018 19:45 Маленький незнакомец Скачать торрент  

Маленький незнакомец
The Little Stranger

«These Delusions Are Contagious»

Страна: Ирландия, Великобритания, Франция
Жанр: драма, триллер, мелодрама, ужасы

Год выпуска: 2018
Продолжительность: 01:51:36

Перевод: Любительский (двухголосый, закадровый) [HiWay Grope]
Субтитры: английские (полные, SDH)
Оригинальная аудиодорожка: английский

Режиссер: Леонард Абрахамсон / Lenny Abrahamson

В ролях: Донал Глисон, Рут Уилсон, Шарлотта Рэмплинг, Уилл Поултер, Лив Хилл, Джош Дилан, Анна Маделей, Лорни МакФадьен, Кейт Филлипс, Тим Плестер, Гарри Хадден-Патон, Камилла Арведсон

Описание:
Летом 1947 года доктора Фарадея вызывают к пациентке в Хандредс-Холл, где когда-то его мать работала горничной. У самого доктора еще с детства после рассказов матери осталась навязчивая идея жить в этом поместье. Хандредс-Холл уже более двух столетий является домом семьи Айрес и сейчас находится в упадке, а его обитатели - пожилая мать, взрослые сын и дочь - вроде бы ничего не замечают, но притворившаяся больной их нынешняя горничная чего-то боится.



Релиз:

Автор рипа: stalkerok
Без рекламы!

Сэмпл

Качество видео: WEB-DLRip-AVC [The.Little.Stranger.2018.1080p.WEB-DL.H264.AC3-EVO]
Формат видео: MKV
Видео кодек: AVC
Аудио кодек: AC3
Видео: AVC, 1056 Кбит/сек, 960x518 (1.85:1), 23,976 кадр/сек
Аудио №1: AC3, 384 Кбит/сек, 48 КГц, 5.1 - русский
Аудио №2: AC3, 384 Кбит/сек, 48 КГц, 5.1 - английский
Навигация по главам: есть
---[Information] [21.11.2018 22:25:15] x264 [info]: frame I:1206 Avg QP:13.70 size: 48299
---[Information] [21.11.2018 22:25:15] x264 [info]: frame P:38011 Avg QP:15.60 size: 12075
---[Information] [21.11.2018 22:25:15] x264 [info]: frame B:121350 Avg QP:17.21 size: 3029

General
Unique ID : 70738818469496073801802150576034723398 (0x3537CD05F42B30A13D1E28EFA070B646)
Complete name : O:\Temp\The Little Stranger\The.Little.Stranger.2018.WEB-DLRip.x264.Rus.Eng.stalkerok.New-Team.mkv
Format : Matroska
Format version : Version 4 / Version 2
File size : 1.42 GiB
Duration : 1 h 51 min
Overall bit rate : 1 827 kb/s
Movie name : The Little Stranger (2018) | Rip by stalkerok
Encoded date : UTC 2018-11-21 19:26:43
Writing application : mkvmerge v28.2.0 ('The Awakening') 64-bit
Writing library : libebml v1.3.6 + libmatroska v1.4.9

Video
ID : 1
Format : AVC
Format/Info : Advanced Video Codec
Format profile : High@L4.1
Format settings, CABAC : Yes
Format settings, ReFrames : 12 frames
Codec ID : V_MPEG4/ISO/AVC
Duration : 1 h 51 min
Bit rate : 1 057 kb/s
Width : 960 pixels
Height : 518 pixels
Display aspect ratio : 1.85:1
Frame rate mode : Constant
Frame rate : 23.976 FPS
Color space : YUV
Chroma subsampling : 4:2:0
Bit depth : 8 bits
Scan type : Progressive
Bits/(Pixel*Frame) : 0.089
Stream size : 844 MiB (58%)
Title : The Little Stranger (2018) | Rip by stalkerok
Writing library : x264 core 157 r2932 303c484
Encoding settings : cabac=1 / ref=12 / deblock=1:-3:-2 / analyse=0x3:0x133 / me=umh / subme=10 / psy=1 / psy_rd=1.00:0.00 / mixed_ref=1 / me_range=32 / chroma_me=1 / trellis=2 / 8x8dct=1 / cqm=0 / deadzone=21,11 / fast_pskip=0 / chroma_qp_offset=-2 / threads=12 / lookahead_threads=3 / sliced_threads=0 / nr=0 / decimate=1 / interlaced=0 / bluray_compat=0 / constrained_intra=0 / bframes=14 / b_pyramid=2 / b_adapt=2 / b_bias=0 / direct=3 / weightb=1 / open_gop=0 / weightp=2 / keyint=240 / keyint_min=23 / scenecut=40 / intra_refresh=0 / rc_lookahead=60 / rc=crf / mbtree=0 / crf=18.9 / qcomp=0.65 / qpmin=0 / qpmax=69 / qpstep=4 / vbv_maxrate=50000 / vbv_bufsize=62500 / crf_max=0.0 / nal_hrd=none / filler=0 / ip_ratio=1.40 / pb_ratio=1.30 / aq=3:0.80
Default : Yes
Forced : No

Audio #1
ID : 2
Format : AC-3
Format/Info : Audio Coding 3
Mode extension : CM (complete main)
Format settings, Endianness : Big
Codec ID : A_AC3
Duration : 1 h 51 min
Bit rate mode : Constant
Bit rate : 384 kb/s
Channel(s) : 6 channels
Channel positions : Front: L C R, Side: L R, LFE
Sampling rate : 48.0 kHz
Frame rate : 31.250 FPS (1536 spf)
Compression mode : Lossy
Stream size : 307 MiB (21%)
Title : HiWayGrope
Language : Russian
Default : Yes
Forced : No

Audio #2
ID : 3
Format : AC-3
Format/Info : Audio Coding 3
Mode extension : CM (complete main)
Format settings, Endianness : Big
Codec ID : A_AC3
Duration : 1 h 51 min
Bit rate mode : Constant
Bit rate : 384 kb/s
Channel(s) : 6 channels
Channel positions : Front: L C R, Side: L R, LFE
Sampling rate : 48.0 kHz
Frame rate : 31.250 FPS (1536 spf)
Compression mode : Lossy
Stream size : 307 MiB (21%)
Language : English
Default : No
Forced : No

Text #1
ID : 4
Format : UTF-8
Codec ID : S_TEXT/UTF8
Codec ID/Info : UTF-8 Plain Text
Duration : 1 h 43 min
Bit rate : 50 b/s
Count of elements : 1396
Stream size : 38.3 KiB (0%)
Language : English
Default : No
Forced : No

Text #2
ID : 5
Format : UTF-8
Codec ID : S_TEXT/UTF8
Codec ID/Info : UTF-8 Plain Text
Duration : 1 h 51 min
Bit rate : 55 b/s
Count of elements : 1666
Stream size : 45.6 KiB (0%)
Title : SDH
Language : English
Default : No
Forced : No

Menu
00:00:00.000 : en:1
00:06:22.966 : en:2
00:11:15.633 : en:3
00:16:38.205 : en:4
00:21:03.553 : en:5
00:28:00.887 : en:6
00:33:59.662 : en:7
00:40:02.316 : en:8
00:48:41.417 : en:9
00:57:35.951 : en:10
01:03:31.056 : en:11
01:09:02.929 : en:12
01:14:17.450 : en:13
01:18:27.073 : en:14
01:23:05.226 : en:15
01:28:52.488 : en:16
01:32:56.190 : en:17
01:37:18.994 : en:18
01:40:56.960 : en:19
01:43:41.416 : en:20



Скачать Маленький незнакомец через торрент http://i6.imageban.ru/out/2017/09/18/2ff75c0c358795c5946784cc1680714d.png Скачать фильм Маленький незнакомец через торрент бесплантно в хорошем качестве Описание:Летом 1947 года доктора Фарадея вызывают к пациентке в Хандредс-Холл, где когда-то его мать работала горничной. У самого доктора ... 5 10 1
Info! Золотая раздача, скачанное не засчитывается.
Торрент: Зарегистрирован [2018-11-21 21:02] · скачан: 42 раз
Статус: T временная
Размер: 1.42 GB
Как cкачать? Как скачать Маленький незнакомец через торрент | qTorrent

% Раздел Тема Автор DL S | L
T Фильмы (WEB-DL 720p, 1080p) [ 4.4 GB ] Маленький незнакомец / The Little Stranger [2018 WEB-DL 1080p] DVO [HiWay Grope] sokol_ok Скачать
18 | 1


>> Регистрируемся здесь <<






Отзывы и комментарии о схеме читаем и пишем здесь: ---> Отзывы и комментарии о схеме

Новые благодарочки в телеграм довольных пользователей:
скриншот   скриншот   скриншот   скриншот   скриншот

21-11-2018 21:02 Маленький незнакомец Скачать торрент  

Перезалив, правка аудио, сорри.



    Дорогой пользователь! Огромная просьба, поблагодарите релизера, оцените раздачу и оставьте свои комментарий, если Вы скачали Маленький незнакомец через торрент бесплатно! Внесите свою лепту в развитие PiratBit!
    Комментировать посты могут только пользователи прошедшие не сложную регистрацию
    Показать сообщения:    

    Маленький незнакомец через торрент
    Скачать бесплатно Маленький незнакомец
    Маленький незнакомец скачать торрент
    Маленький незнакомец смотреть онлайн
    Cкачать фильм Маленький незнакомец бесплатно
    Маленький незнакомец скачать торрент в хорошем качестве
    Маленький незнакомец смотреть онлайн бесплатно в хорошем качестве


    Вы не можете начинать темы
    Вы не можете отвечать на сообщения
    Вы не можете редактировать свои сообщения
    Вы не можете удалять свои сообщения
    Вы не можете голосовать в опросах
    Вы не можете прикреплять файлы к сообщениям
    Вы можете скачивать файлы