Ссылка на приватное зеркало нашего сайта всего за 1$. Внимание количество ограничено!!!

2 сезон

iTunes

1 сезон

1

2 сезон

2 сезон

iTunes

1 сезон

RePack

30

Новинка

ВАЖНО

ИГРА 18+

pack

RePack

MK11
pack

Забери бонус

RePack

jed

!!Акция!!

Alien_Rage

RePack

fifa19

RePack

Assassins Creed: Odyssey

RePack

NEED FOR SPEED™ PAYBACK

4 сезон

9 сезон

Бесстыжие 9 сезон

Все сериалы

все сериалы на PB.wtf

RePack

FAR CRY 5
  

Маленький незнакомец / The Little Stranger (Леонард Абрахамсон / Lenny Abrahamson) [2018, драма, триллер, мелодрама, WEB-DL 1080p] DVO [HiWay Grope] pb.wtf

Маленький незнакомец через торрент pb.wtf

Размер: 4.4 GB | Добавлен: 2 года назад | Торрент скачан:82 раза
Скачать  

21-11-2018 20:05 Маленький незнакомец Скачать торрент  

Маленький незнакомец
The Little Stranger

«These Delusions Are Contagious»

Страна: Ирландия, Великобритания, Франция
Жанр: драма, триллер, мелодрама, ужасы

Год выпуска: 2018
Продолжительность: 01:51:36

Перевод: Любительский (двухголосый, закадровый) [HiWay Grope]
Субтитры: английские (полные, SDH)
Оригинальная аудиодорожка: английский

Режиссер: Леонард Абрахамсон / Lenny Abrahamson

В ролях: Донал Глисон, Рут Уилсон, Шарлотта Рэмплинг, Уилл Поултер, Лив Хилл, Джош Дилан, Анна Маделей, Лорни МакФадьен, Кейт Филлипс, Тим Плестер, Гарри Хадден-Патон, Камилла Арведсон

Описание:
Летом 1947 года доктора Фарадея вызывают к пациентке в Хандредс-Холл, где когда-то его мать работала горничной. У самого доктора еще с детства после рассказов матери осталась навязчивая идея жить в этом поместье. Хандредс-Холл уже более двух столетий является домом семьи Айрес и сейчас находится в упадке, а его обитатели - пожилая мать, взрослые сын и дочь - вроде бы ничего не замечают, но притворившаяся больной их нынешняя горничная чего-то боится.



Релиз:

Автор релиза: stalkerok
Без рекламы!

Сэмпл

Качество видео: WEB-DL 1080p [The.Little.Stranger.2018.1080p.WEB-DL.H264.AC3-EVO]
Формат видео: MKV
Видео кодек: AVC
Аудио кодек: AC3
Видео: AVC, 4877 Кбит/сек, 1920x1036 (1.85:1), 23,976 кадр/сек
Аудио №1: AC3, 384 Кбит/сек, 48 КГц, 5.1 - русский
Аудио №2: AC3, 384 Кбит/сек, 48 КГц, 5.1 - английский
Навигация по главам: есть
Общее
Уникальный идентификатор : 277884374221666857636219881041927480917 (0xD10E956FECA92A10C7CEB43948FE2655)
Полное имя : O:\Temp\The Little Stranger\The.Little.Stranger.2018.WEB-DL.1080p.Rus.Eng.stalkerok.New-Team.mkv
Формат : Matroska
Версия формата : Version 4 / Version 2
Размер файла : 4,40 Гбайт
Продолжительность : 1 ч. 51 м.
Общий поток : 5648 Кбит/сек
Название фильма : The Little Stranger (2018) | release by stalkerok
Дата кодирования : UTC 2018-11-21 17:49:34
Программа кодирования : mkvmerge v28.2.0 ('The Awakening') 64-bit
Библиотека кодирования : libebml v1.3.6 + libmatroska v1.4.9

Видео
Идентификатор : 1
Формат : AVC
Формат/Информация : Advanced Video Codec
Профиль формата : High@L4
Параметр CABAC формата : Да
Параметр ReFrames формата : 4 кадра
Идентификатор кодека : V_MPEG4/ISO/AVC
Продолжительность : 1 ч. 51 м.
Битрейт : 4877 Кбит/сек
Ширина : 1920 пикселей
Высота : 1036 пикселей
Соотношение сторон : 1,85:1
Режим частоты кадров : Постоянный
Частота кадров : 23,976 (24000/1001) кадра/сек
Цветовое пространство : YUV
Субдискретизация насыщенности : 4:2:0
Битовая глубина : 8 бит
Тип развёртки : Прогрессивная
Бит/(Пиксели*Кадры) : 0.102
Размер потока : 3,80 Гбайт (86%)
Заголовок : The.Little.Stranger.2018.1080p.WEB-DL.H264.AC3-EVO
Default : Да
Forced : Нет
Цветовой диапазон : Limited
Основные цвета : BT.709
Характеристики трансфера : BT.709
Коэффициенты матрицы : BT.709

Аудио #1
Идентификатор : 2
Формат : AC-3
Формат/Информация : Audio Coding 3
Расширение режима : CM (complete main)
Параметр Endianness формата : Big
Идентификатор кодека : A_AC3
Продолжительность : 1 ч. 51 м.
Вид битрейта : Постоянный
Битрейт : 384 Кбит/сек
Каналы : 6 каналов
Расположение каналов : Front: L C R, Side: L R, LFE
Частота : 48,0 КГц
Частота кадров : 31,250 кадров/сек (1536 spf)
Метод сжатия : С потерями
Размер потока : 307 Мбайт (7%)
Заголовок : HiWayGrope
Язык : Russian
Default : Да
Forced : Нет

Аудио #2
Идентификатор : 3
Формат : AC-3
Формат/Информация : Audio Coding 3
Расширение режима : CM (complete main)
Параметр Endianness формата : Big
Идентификатор кодека : A_AC3
Продолжительность : 1 ч. 51 м.
Вид битрейта : Постоянный
Битрейт : 384 Кбит/сек
Каналы : 6 каналов
Расположение каналов : Front: L C R, Side: L R, LFE
Частота : 48,0 КГц
Частота кадров : 31,250 кадров/сек (1536 spf)
Метод сжатия : С потерями
Размер потока : 307 Мбайт (7%)
Язык : English
Default : Нет
Forced : Нет

Текст #1
Идентификатор : 4
Формат : UTF-8
Идентификатор кодека : S_TEXT/UTF8
Идентификатор кодека/Информация : UTF-8 Plain Text
Продолжительность : 1 ч. 43 м.
Битрейт : 50 бит/сек
Count of elements : 1396
Размер потока : 38,3 Кбайт (0%)
Язык : English
Default : Нет
Forced : Нет

Текст #2
Идентификатор : 5
Формат : UTF-8
Идентификатор кодека : S_TEXT/UTF8
Идентификатор кодека/Информация : UTF-8 Plain Text
Продолжительность : 1 ч. 51 м.
Битрейт : 55 бит/сек
Count of elements : 1666
Размер потока : 45,6 Кбайт (0%)
Заголовок : SDH
Язык : English
Default : Нет
Forced : Нет

Меню
00:00:00.000 : en:1
00:06:22.966 : en:2
00:11:15.633 : en:3
00:16:38.205 : en:4
00:21:03.553 : en:5
00:28:00.887 : en:6
00:33:59.662 : en:7
00:40:02.316 : en:8
00:48:41.417 : en:9
00:57:35.951 : en:10
01:03:31.056 : en:11
01:09:02.929 : en:12
01:14:17.450 : en:13
01:18:27.073 : en:14
01:23:05.226 : en:15
01:28:52.488 : en:16
01:32:56.190 : en:17
01:37:18.994 : en:18
01:40:56.960 : en:19
01:43:41.416 : en:20
pb.wtf



Скачать Маленький незнакомец через торрент http://i6.imageban.ru/out/2017/09/18/2ff75c0c358795c5946784cc1680714d.png Скачать фильм Маленький незнакомец через торрент бесплантно в хорошем качестве Описание:Летом 1947 года доктора Фарадея вызывают к пациентке в Хандредс-Холл, где когда-то его мать работала горничной. У самого доктора ... 10 10 1
Info! Золотая раздача, скачанное не засчитывается.
Торрент: Зарегистрирован [2018-11-21 21:09] · скачан: 82 раз
Статус: T временная
Размер: 4.4 GB
Как cкачать? Как скачать Маленький незнакомец через торрент | qTorrent

% Раздел Тема Автор DL S | L
# Фильмы (мультфильмы) cо спонсором показа (Новинки AVI/MKV) [ 5.08 GB ] Маленький незнакомец / The Little Stranger [2018 BDRip 1080p] MVO [Официальный звук] bober100 Скачать
1 | 0
# Фильмы (мультфильмы) cо спонсором показа (Новинки AVI/MKV) [ 4.44 GB ] Маленький незнакомец / The Little Stranger [2018 BDRip 720p] MVO [Официальный звук] bober100 Скачать
1 | 0
T Фильмы (мультфильмы) cо спонсором показа (Новинки AVI/MKV) [ 2 GB ] Маленький незнакомец / The Little Stranger [2018 HDRip] MVO [Официальный звук] bober100 Скачать
1 | 0
T Фильмы (мультфильмы) cо спонсором показа (Новинки AVI/MKV) [ 1.36 GB ] Маленький незнакомец / The Little Stranger [2018 HDRip] MVO [Официальный звук] bober100 Скачать
1 | 0
Фильмы [HD 720p, 1080p] (Хороший звук DUB, MVO) [ 9.19 GB ] Маленький незнакомец / The Little Stranger [2018 BDRip 1080p] MVO [Jaskier] bober100 Скачать
1 | 0
T Релизы по Парсеру [Игры, Сериалы и Фильмы и другое...] [ 1.46 GB ] Маленький незнакомец / The Little Stranger [2018 HDRip] [MVO] killermax2013 Скачать
1 | 0
T Фильмы 2019-2020 (Звук TS, Cam, VO, DVO) [ 1.42 GB ] Маленький незнакомец / The Little Stranger [2018 WEB-DLRip-AVC] DVO [HiWay Grope] sokol_ok Скачать
2 | 0

28-11-2019 20:33  

Отключить всю рекламу на сайте

21-11-2018 21:09 Маленький незнакомец Скачать торрент  

Перезалив, правка аудио, сoрри.pb.wtf



    Дорогой пользователь! Огромная просьба, поблагодарите релизера, оцените раздачу и оставьте свои комментарий, если Вы скачали Маленький незнакомец через торрент бесплатно! Внесите свою лепту в развитие PiratBit!
    Комментировать посты могут только пользователи прошедшие не сложную регистрацию
    Показать сообщения:    

    Маленький незнакомец через торрент
    Скачать бесплатно Маленький незнакомец
    Маленький незнакомец скачать торрент
    Маленький незнакомец смотреть онлайн
    Cкачать фильм Маленький незнакомец бесплатно
    Маленький незнакомец скачать торрент в хорошем качестве
    Маленький незнакомец смотреть онлайн бесплатно в хорошем качестве


    Вы не можете начинать темы
    Вы не можете отвечать на сообщения
    Вы не можете редактировать свои сообщения
    Вы не можете удалять свои сообщения
    Вы не можете голосовать в опросах
    Вы не можете прикреплять файлы к сообщениям
    Вы можете скачивать файлы