новый адрес
Ссылка на приватное зеркало всего за 1$. Внимание количество ограничено!!!

iTunes

1+1

iTunes

мы

iTunes

1

iTunes

Чернобыль

iTunes

Ральф против интернета

Лицензия

ПШазам

Лицензия

Оно 2

Лицензия

30
pack

Вам бонус

ВАЖНО

!!Акция!!

Alien_RageХит недели

RePack

Resident Evil 21

ИГРА 18+

pack

RePack

jed

!!Акция!!

Alien_Rage

RePack

fifa19

RePack

Assassins Creed: Odyssey

RePack

NEED FOR SPEED™ PAYBACK

3 сезон

9 сезон

Бесстыжие 9 сезон

Все сериалы

все сериалы на PB.wtf

RePack

FAR CRY 5
Ребята, катастрофически не хватает 1900р. для оплаты серверов за Октябрь (всвязи с блокировками трафик упал в 3 раза), 1-2р., выручайте.
  

Газгольдер. Клубаре (Иван Курский) [2018, комедия, криминал, WEB-DLRip] [iTunes] pb.wtf

Газгольдер. Клубаре через торрент pb.wtf

Раздают: 70 [ 20 KB/s ] Качают: 1 [ 0 KB/s ]
Размер: 1.37 GB | Добавлен: 1 год назад | Торрент скачан:1529 раз
Скачать  

21-11-2018 21:43 Газгольдер. Клубаре Скачать торрент  

Газгольдер. Клубаре Год выпуска: 2018
Страна: Россия
Жанр: комедия, криминал
Продолжительность: 01:47:59
Перевод: Не требуется | iTunes
Субтитры: отсутствуют

Режиссер: Иван Курский



В ролях:

Баста, Евгений Стычкин, Руслан Таркинский, Евгения Щербакова, Михаил Богдасаров, Владимир Сычев, Михаил Горевой, Даша Чаруша, Олег Груз, Сергей Рублев

Описание:

Праздная жизнь известного промоутера Артура заканчивается, когда на него объявляют охоту менты. Артура ставят на счетчик в самое «горячее» время: он ввязался в большую аферу со строительством модного ночного клуба «Клубаре». Его судьба зависла между тюрьмой, смертью и шансом сорвать реальный джекпот. Проблемы Артура набирают обороты. И его план имеет самую неожиданную развязку.

Качество: WEB-DLRip
Формат: AVI

Видео: 1547 kb/s, 720x304
Аудио: Русский, (AC3, 2 ch, 256 Кбит/с)
скриншот  скриншот  скриншот  скриншот  скриншот  

Общее
Полное имя : D:\Газгольдер. Клубаре. 2O18.O.WEB-DLRip.14OOMB.avi
Формат : AVI
Формат/Информация : Audio Video Interleave
Размер файла : 1,37 Гбайт
Продолжительность : 1 ч. 47 м.
Общий поток : 1812 Кбит/сек
Название фильма : Ga3g0Ldep.Kly6ape.2O18.O.WEB-DLRip.14OOMB
Программа кодирования : VirtualDubMod 1.5.10.2 (build 2540/release)
Формат оригинала/Имя : Movie

Видео
Идентификатор : 0
Формат : MPEG-4 Visual
Профиль формата : Advanced Simple@L5
Параметр BVOP формата : 2
Параметр QPel формата : Нет
Параметр GMC формата : Без точки перехода
Параметр матрицы формата : Выборочная
Идентификатор кодека : XVID
Идентификатор кодека/Подсказка : XviD
Продолжительность : 1 ч. 47 м.
Битрейт : 1547 Кбит/сек
Ширина : 720 пикселей
Высота : 304 пикселя
Соотношение сторон : 2,35:1
Частота кадров : 24,000 кадра/сек
Цветовое пространство : YUV
Субдискретизация насыщенности : 4:2:0
Битовая глубина : 8 бит
Тип развёртки : Прогрессивная
Метод сжатия : С потерями
Бит/(Пиксели*Кадры) : 0.281
Размер потока : 1,11 Гбайт (81%)
Библиотека кодирования : XviD 1.2.1 (UTC 2008-12-04)

Аудио
Идентификатор : 1
Формат : AC-3
Формат/Информация : Audio Coding 3
Расширение режима : CM (complete main)
Параметр Endianness формата : Big
Идентификатор кодека : 2000
Продолжительность : 1 ч. 47 м.
Вид битрейта : Постоянный
Битрейт : 256 Кбит/сек
Каналы : 2 канала
Расположение каналов : Front: L R
Частота : 48,0 КГц
Частота кадров : 31,250 кадров/сек (1536 spf)
Метод сжатия : С потерями
Размер потока : 198 Мбайт (14%)
Выравнивание : Разделение по промежуткам
pb.wtf



Скачать Газгольдер. Клубаре через торрент https://d.radikal.ru/d42/1811/0d/1533617bbb40.png Скачать фильм Газгольдер. Клубаре через торрент бесплантно в хорошем качестве Описание: Праздная жизнь известного промоутера Артура заканчивается, когда на него объявляют охоту менты. Артура ставят на счетчик в самое ... 9.1 10 34
Info! Золотая раздача, скачанное не засчитывается.
Торрент: Зарегистрирован [2018-11-21 21:43] · скачан: 1 529 раз
Статус: √ проверено
Размер: 1.37 GB
Как cкачать? Как скачать Газгольдер. Клубаре через торрент | qTorrent

% Раздел Тема Автор DL S | L
T Наши фильмы (HD, WEB-DL 720p, 1080p) [ 3.51 GB ] Газгольдер. Клубаре [2018 WEB-DL 1080p] bober100 Скачать
3 | 0
Наши новые фильмы 2018-2019 [ 701 MB ] Газгольдер. Клубаре [2018 WEB-DLRip] bober100 Скачать
2 | 0

22-11-2018 10:36 Газгольдер. Клубаре Скачать торрент  

Без ляли уже не тортpb.wtf



    Дорогой пользователь! Огромная просьба, поблагодарите релизера, оцените раздачу и оставьте свои комментарий, если Вы скачали Газгольдер. Клубаре через торрент бесплатно! Внесите свою лепту в развитие PiratBit!
    Комментировать посты могут только пользователи прошедшие не сложную регистрацию
    Показать сообщения:    

    Газгольдер. Клубаре через торрент
    Скачать бесплатно Газгольдер. Клубаре
    Газгольдер. Клубаре скачать торрент
    Газгольдер. Клубаре смотреть онлайн
    Cкачать фильм Газгольдер. Клубаре бесплатно
    Газгольдер. Клубаре скачать торрент в хорошем качестве
    Газгольдер. Клубаре смотреть онлайн бесплатно в хорошем качестве


    Вы не можете начинать темы
    Вы не можете отвечать на сообщения
    Вы не можете редактировать свои сообщения
    Вы не можете удалять свои сообщения
    Вы не можете голосовать в опросах
    Вы не можете прикреплять файлы к сообщениям
    Вы можете скачивать файлы