2 сезон

iTunes

MVO

1

2 сезон

iTunes

iTunes

1 сезон

RePack

30

Ultimate

ВАЖНО

ИГРА 18+

pack

RePack

MK11
pack

Легкие деньги

RePack

jed

RePack

fifa19

RePack

RDR2

RePack

NEED FOR SPEED™ PAYBACK

4 сезон

9 сезон

Бесстыжие 9 сезон

Все сериалы

все сериалы на PB.wtf

RePack

FAR CRY 5

Anonymous, добрый день, мы не успеваем собрать деньги на оплату серверов за декабрь и январь, помогите нам пожалуйста в это трудное время. В качестве благодарности мы отключим Вам всю рекламу на сайте (укажите свой ник в строку Ваше имя)!

×
  
Magnet ссылка

Слоны могут играть в футбол (Михаил Сегал) [2018, Мелодрама, WEB-DL 1080p] [iTunes] pb.wtf

Слоны могут играть в футбол через торрент pb.wtf

Размер: 3.69 GB | Добавлен: 2 года 2 мес. назад | Торрент скачан:149 раз
Скачать  

22-11-2018 04:39 Слоны могут играть в футбол Скачать торрент  

Слоны могут играть в футболГод выпуска: 2018
Страна: Россия
Жанр: Мелодрама
Продолжительность: 01:44:58
Перевод: Не требуется | iTunes
Субтитры: отсутствуют

Режиссер: Михаил Сегал

rating

В ролях:

Владимир Мишуков, Софья Гершевич, Варвара Пахомова, Александра Быстржицкая, Дмитрий Гудочкин, Денис Фомин, Надежда Горелова, Михаил Сегал, Юрий Быков, Ирина Пахомова

Описание:

Попав в город своего детства, Дмитрий встречает юную Машу. Ему за сорок, она школьница. Однако всем известный сюжет «Лолиты» разворачивается по непредсказуемому сценарию.

Качество: WEB-DL 1080p
Формат: MKV

Видео: 1920x804 (2,40:1), 25 fps, MPEG-4 AVC ~ 4652 Kbps avg, 0.121 bit/pixel
Аудио: AC3, 48 kHz, 6 ch, ~384.00 kbps avg | русский | iTunes
скриншот  скриншот  скриншот  скриншот  скриншот  

Общее
Уникальный идентификатор : 123310565723351304414764218977754844707 (0x5CC4C047FF561C313570C53BC4688E23)
Полное имя : SLONY_MOGUT_IGRAT_FUTBOL (2018) WEB-DL 1080p.mkv
Формат : Matroska
Версия формата : Version 4 / Version 2
Размер файла : 3,69 Гбайт
Продолжительность : 1 ч. 44 м.
Общий поток : 5037 Кбит/сек
Название фильма : SLONY_MOGUT_IGRAT_FUTBOL (2018) WEB-DL 1080p
Дата кодирования : UTC 2018-11-22 02:10:43
Программа кодирования : mkvmerge v27.0.0 ('Metropolis') 64-bit
Библиотека кодирования : libebml v1.3.6 + libmatroska v1.4.9

Видео
Идентификатор : 1
Формат : AVC
Формат/Информация : Advanced Video Codec
Профиль формата : High@L4.1
Настройки формата : CABAC / 4 Ref Frames
Параметр CABAC формата : Да
Параметр RefFrames формата : 4 кадра
Идентификатор кодека : V_MPEG4/ISO/AVC
Продолжительность : 1 ч. 44 м.
Битрейт : 4652 Кбит/сек
Ширина : 1920 пикселей
Высота : 804 пикселя
Соотношение сторон : 2,40:1
Режим частоты кадров : Постоянный
Частота кадров : 25,000 кадров/сек
Цветовое пространство : YUV
Субдискретизация насыщенности : 4:2:0
Битовая глубина : 8 бит
Тип развёртки : Прогрессивная
Бит/(Пиксели*Кадры) : 0.121
Размер потока : 3,41 Гбайт (92%)
Заголовок : SLONY_MOGUT_IGRAT_FUTBOL (2018) WEB-DL 1080p
Default : Да
Forced : Нет

Аудио
Идентификатор : 2
Формат : AC-3
Формат/Информация : Audio Coding 3
Идентификатор кодека : A_AC3
Продолжительность : 1 ч. 44 м.
Вид битрейта : Постоянный
Битрейт : 384 Кбит/сек
Каналы : 6 каналов
Расположение каналов : Front: L C R, Side: L R, LFE
Частота : 48,0 КГц
Частота кадров : 31,250 кадров/сек (1536 SPF)
Битовая глубина : 16 бит
Метод сжатия : С потерями
Размер потока : 288 Мбайт (8%)
Заголовок : iTunes | SLONY_MOGUT_IGRAT_FUTBOL (2018) WEB-DL 1080p
Язык : Russian
Default : Да
Forced : Нет

pb.wtf



Скачать Слоны могут играть в футбол через торрент https://d.radikal.ru/d12/1811/bf/5891466c046c.png Скачать фильм Слоны могут играть в футбол через торрент бесплантно в хорошем качестве Описание: Попав в город своего детства, Дмитрий встречает юную Машу. Ему за сорок, она школьница. Однако всем известный сюжет «Лолиты» ... 8.8 10 4
Торрент: Зарегистрирован [2018-11-22 04:39] · скачан: 149 раз
Статус: √ проверено
Размер: 3.69 GB
Как cкачать? Как скачать Слоны могут играть в футбол через торрент | UTorrent

% Раздел Тема Автор DL S | L
Наши фильмы 2018-2019 [ 746 MB ] Слоны могут играть в футбол [2018 Мело WEB-DLRip] bober100 Скачать
2 | 0
Наши фильмы 2018-2019 [ 1.46 GB ] Слоны могут играть в футбол [2018 Мело WEB-DLRip] bober100 Скачать
1 | 0

28-11-2019 20:33  

Отключить всю рекламу на сайте

    Дорогой пользователь! Огромная просьба, поблагодарите релизера, оцените раздачу и оставьте свои комментарий, если Вы скачали Слоны могут играть в футбол через торрент бесплатно! Внесите свою лепту в развитие PiratBit!
    Комментировать посты могут только пользователи прошедшие не сложную регистрацию
    Показать сообщения:    

    Слоны могут играть в футбол через торрент
    Скачать бесплатно Слоны могут играть в футбол
    Слоны могут играть в футбол скачать торрент
    Слоны могут играть в футбол смотреть онлайн
    Cкачать фильм Слоны могут играть в футбол бесплатно
    Слоны могут играть в футбол скачать торрент в хорошем качестве
    Слоны могут играть в футбол смотреть онлайн бесплатно в хорошем качестве


    Вы не можете начинать темы
    Вы не можете отвечать на сообщения
    Вы не можете редактировать свои сообщения
    Вы не можете удалять свои сообщения
    Вы не можете голосовать в опросах
    Вы не можете прикреплять файлы к сообщениям
    Вы можете скачивать файлы