Ссылка на приватное зеркало всего за 1$. Внимание количество ограничено!!!

iTunes

1+1

iTunes

мы

WEB-DL

1

iTunes

Чернобыль

iTunes

Ральф против интернета

Лицензия

ПШазам

Лицензия

Оно 2

Лицензия

30
pack

Вам бонус

ВАЖНО

!!Акция!!

Alien_RageХит недели

RePack

Resident Evil 21

ИГРА 18+

pack

RePack

jed

!!Акция!!

Alien_Rage

RePack

fifa19

RePack

Assassins Creed: Odyssey

RePack

NEED FOR SPEED™ PAYBACK

3 сезон

9 сезон

Бесстыжие 9 сезон

Все сериалы

все сериалы на PB.wtf

RePack

FAR CRY 5
Ребята, катастрофически не хватает 1900р. для оплаты серверов за Октябрь (всвязи с блокировками трафик упал в 3 раза), 1-2р., выручайте.
  

Артист из Кохановки (Гpигopий Липшиц) [1962, СССР, мелодрама, комедия, SATRip-AVC от AVP Studio] pb.wtf

Артист из Кохановки через торрент pb.wtf

Размер: 1.09 GB | Добавлен: 1 год назад | Торрент скачан:16 раз
Скачать  

22-11-2018 09:24 Артист из Кохановки Скачать торрент  

Артист из Кохановки
Страна: СССР
Производство: К/ст им. А. Довженко

Жанр: мелодрама, комедия
Год выпуска: 1962
Продолжительность: 01:12:43

Перевод: Не требуется
Cубтитры: нет
Оригинальная аудиодорожка: русский

Режиссер: Гpигopий Липшиц

В ролях:
Эдуард Бредун, Ирина Бунина, Олег Анофриев, Нина Дорошина, Георгий Вицин, Владимир Дальский, Виктор Мягкий, Раиса Пироженко, Софья Карамаш, Вера Родионова, Валентин Дуклер, О. Мельниченок...
Об актёрах подробней

Описание:
Марина Грицюк (Ирина Бунина), сдала вступительные экзамены в сельхозинститут и переехала на учёбу в город. С ней поехал Андрей (Эдуард Бредун), её жених, давно решивший уйти из колхоза. Когда Марина решила вернуться домой и перевелась на заочное отделение, то ей пришлось возвращаться одной.

Исходник: DVB
Качество видео: SATRip-AVC
Формат видео: MKV

Видео: 696->754x566 (4:3), 25,000 кадров/сек, H264 ~ 1950 kbps avg, 0.198 bit/pixel
Аудио: 48 kHz, Dolby Digital AC3 2.0, 192 kbps

Раздача от:
Общее
Полное имя : Artist.iz.Kohanovki.1962.SATRip-AVC_[New-team]_by_AVP_Studio.mkv
Формат : Matroska
Версия формата : Version 4
Размер файла : 1,09 Гбайт
Продолжительность : 1 ч. 12 м.
Общий поток : 2144 Кбит/сек
Дата кодирования : UTC 2018-11-21 09:24:32
Программа кодирования : mkvmerge v27.0.0 ('Metropolis') 64-bit
Библиотека кодирования : libebml v1.3.6 + libmatroska v1.4.9

Видео
Идентификатор : 1
Формат : AVC
Формат/Информация : Advanced Video Codec
Профиль формата : High@L4.1
Настройки формата : CABAC / 10 Ref Frames
Параметр CABAC формата : Да
Параметр RefFrames формата : 10 кадров
Идентификатор кодека : V_MPEG4/ISO/AVC
Продолжительность : 1 ч. 12 м.
Битрейт : 1950 Кбит/сек
Ширина : 696 пикселей
Высота : 566 пикселей
Соотношение сторон : 4:3
Режим частоты кадров : Постоянный
Частота кадров : 25,000 кадров/сек
Цветовое пространство : YUV
Субдискретизация насыщенности : 4:2:0
Битовая глубина : 8 бит
Тип развёртки : Прогрессивная
Бит/(Пиксели*Кадры) : 0.198
Размер потока : 1014 Мбайт (91%)
Библиотека кодирования : x264 core 157 r2932 303c484
Настройки программы : cabac=1 / ref=10 / deblock=1:-2:-1 / analyse=0x3:0x113 / me=umh / subme=10 / psy=1 / psy_rd=1.00:0.00 / mixed_ref=1 / me_range=32 / chroma_me=1 / trellis=2 / 8x8dct=1 / cqm=0 / deadzone=21,11 / fast_pskip=1 / chroma_qp_offset=-2 / threads=6 / lookahead_threads=1 / sliced_threads=0 / nr=0 / decimate=0 / interlaced=0 / bluray_compat=0 / constrained_intra=0 / bframes=8 / b_pyramid=2 / b_adapt=2 / b_bias=0 / direct=3 / weightb=1 / open_gop=0 / weightp=2 / keyint=250 / keyint_min=25 / scenecut=40 / intra_refresh=0 / rc=2pass / mbtree=0 / bitrate=1950 / ratetol=1.0 / qcomp=0.60 / qpmin=0 / qpmax=69 / qpstep=4 / cplxblur=20.0 / qblur=0.5 / ip_ratio=1.40 / pb_ratio=1.30 / aq=1:1.00
Язык : Russian
Default : Да
Forced : Нет

Аудио
Идентификатор : 2
Формат : AC-3
Формат/Информация : Audio Coding 3
Коммерческое название : Dolby Digital
Идентификатор кодека : A_AC3
Продолжительность : 1 ч. 12 м.
Вид битрейта : Постоянный
Битрейт : 192 Кбит/сек
Каналы : 2 канала
Channel layout : L R
Частота : 48,0 КГц
Частота кадров : 31,250 кадров/сек (1536 SPF)
Битовая глубина : 16 бит
Метод сжатия : С потерями
Размер потока : 99,9 Мбайт (9%)
Язык : Russian
Default : Да
Forced : Нет
pb.wtf



Скачать Артист из Кохановки через торрент http://picplus.ru/img/1811/22/7f4a2592.png Скачать фильм Артист из Кохановки через торрент бесплантно в хорошем качестве Описание:Марина Грицюк (Ирина Бунина), сдала вступительные экзамены в сельхозинститут и переехала на учёбу в город. С ней поехал Андрей ... 5 10 1
Info! Золотая раздача, скачанное не засчитывается.
Торрент: Зарегистрирован [2018-11-22 09:24] · скачан: 16 раз
Статус: √ проверено
Размер: 1.09 GB
Как cкачать? Как скачать Артист из Кохановки через торрент | qTorrent

% Раздел Тема Автор DL S | L
Кино СССР [ 744 MB ] Артист из Кохановки [1962 СССР SATRip от AVP Studio] AVP Studio Скачать
1 | 0

28-11-2019 20:33  

Отключить всю рекламу на сайте

    Дорогой пользователь! Огромная просьба, поблагодарите релизера, оцените раздачу и оставьте свои комментарий, если Вы скачали Артист из Кохановки через торрент бесплатно! Внесите свою лепту в развитие PiratBit!
    Комментировать посты могут только пользователи прошедшие не сложную регистрацию
    Показать сообщения:    

    Артист из Кохановки через торрент
    Скачать бесплатно Артист из Кохановки
    Артист из Кохановки скачать торрент
    Артист из Кохановки смотреть онлайн
    Cкачать фильм Артист из Кохановки бесплатно
    Артист из Кохановки скачать торрент в хорошем качестве
    Артист из Кохановки смотреть онлайн бесплатно в хорошем качестве


    Вы не можете начинать темы
    Вы не можете отвечать на сообщения
    Вы не можете редактировать свои сообщения
    Вы не можете удалять свои сообщения
    Вы не можете голосовать в опросах
    Вы не можете прикреплять файлы к сообщениям
    Вы можете скачивать файлы