Ребята, если до конца года каждый наш пользователь пожертвует хотя бы 10 рублей, нам хватит денег оплатить все наши расходы.

iTunes

iTunes

Миссия невыполнима: Последствия

iTunes

Поиск

4 сезон

дом

MVO

venom

iTunes

Багровая мята

iTunes

Проклятие монахини

iTunes

Человек на Луне

ИГРА 18+

pack

RePack

Battlefield V Хит недели

RePack

Assassins Creed: Odyssey
pack

RePack

Darksiders 3

iTunes 4K

Миссия невыполнима: Последствия

RePack

fifa19

!!Акция!!

Alien_RageХит недели

RePack

NEED FOR SPEED™ PAYBACK

SATRip

9 сезон

Бесстыжие 9 сезон

Все сериалы

все сериалы на PB.wtf

iTunes

Мэнди

RePack

FAR CRY 5
  

Вечеринка монстров / Monster Party (Крис фон Хоффманн / Chris von Hoffmann) [2018, ужасы, триллер, детектив, WEB-DLRip-AVC] DVO [HiWay Grope]

Вечеринка монстров через торрент

Раздают: 348 [ 906 KB/s ] Качают: 14 [ 2 MB/s ]
Размер: 1.4 GB | Добавлен: 27 д. назад | Торрент скачан:116 раз
Скачать  

22-11-2018 12:31 Вечеринка монстров Скачать торрент  

Вечеринка монстров
Monster Party

Страна: США
Жанр: ужасы, триллер, детектив
Год выпуска: 2018
Продолжительность: 01:29:22

Перевод: Любительский (двухголосый, закадровый) [HiWay Grope]
Субтитры: английские (полные, SDH)
Оригинальная аудиодорожка: английский

Режиссер: Крис фон Хоффманн / Chris von Hoffmann

В ролях: Джулиан МакМэхон, Робин Танни, Сэм Страйк, Вирджиния Гарднер, Брэндон Майкл Холл, Эрин Мориарти, Киан Лоули, Лэнс Реддик, Диего Бонета, Джэми Уорд, Честер Рашинг, София Кастро

Описание:
Трое подростков проникают в дом богачей, чтобы ограбить его во время званого обеда, но оказываются в смертельной ловушке.



Релиз:

Автор рипа: stalkerok
Без рекламы!

Сэмпл

Качество видео: WEB-DLRip-AVC [Monster Party.2018.1080p.WEB-DL.H264.AC3-EVO]
Формат видео: MKV
Видео кодек: AVC
Аудио кодек: AC3
Видео: AVC, 1479 Кбит/сек, 1124x466 (2.40:1), 23,976 кадр/сек
Аудио №1: AC3, 384 Кбит/сек, 48 КГц, 5.1 - русский
Аудио №2: AC3, 384 Кбит/сек, 48 КГц, 5.1 - английский
Навигация по главам: есть
---[Information] [22.11.2018 15:04:51] x264 [info]: frame I:1036 Avg QP:14.34 size: 45612
---[Information] [22.11.2018 15:04:51] x264 [info]: frame P:33119 Avg QP:16.30 size: 15766
---[Information] [22.11.2018 15:04:51] x264 [info]: frame B:94413 Avg QP:18.46 size: 4473

General
Unique ID : 320000894121446017389912821415494038147 (0xF0BDEE30217E44F8DC3876327F783283)
Complete name : O:\Temp\Monster Party\Monster.Party.2018.WEB-DLRip.x264.Rus.Eng.stalkerok.New-Team.mkv
Format : Matroska
Format version : Version 4 / Version 2
File size : 1.40 GiB
Duration : 1 h 29 min
Overall bit rate : 2 250 kb/s
Movie name : Monster Party (2018) | Rip by stalkerok
Encoded date : UTC 2018-11-22 12:07:57
Writing application : mkvmerge v28.2.0 ('The Awakening') 64-bit
Writing library : libebml v1.3.6 + libmatroska v1.4.9

Video
ID : 1
Format : AVC
Format/Info : Advanced Video Codec
Format profile : High@L4.1
Format settings, CABAC : Yes
Format settings, ReFrames : 12 frames
Codec ID : V_MPEG4/ISO/AVC
Duration : 1 h 29 min
Bit rate : 1 480 kb/s
Width : 1 124 pixels
Height : 466 pixels
Display aspect ratio : 2.40:1
Frame rate mode : Constant
Frame rate : 23.976 FPS
Color space : YUV
Chroma subsampling : 4:2:0
Bit depth : 8 bits
Scan type : Progressive
Bits/(Pixel*Frame) : 0.118
Stream size : 946 MiB (66%)
Title : Monster Party (2018) | Rip by stalkerok
Writing library : x264 core 157 r2932 303c484
Encoding settings : cabac=1 / ref=12 / deblock=1:-3:-2 / analyse=0x3:0x133 / me=umh / subme=10 / psy=1 / psy_rd=1.00:0.00 / mixed_ref=1 / me_range=32 / chroma_me=1 / trellis=2 / 8x8dct=1 / cqm=0 / deadzone=21,11 / fast_pskip=0 / chroma_qp_offset=-2 / threads=12 / lookahead_threads=3 / sliced_threads=0 / nr=0 / decimate=1 / interlaced=0 / bluray_compat=0 / constrained_intra=0 / bframes=14 / b_pyramid=2 / b_adapt=2 / b_bias=0 / direct=3 / weightb=1 / open_gop=0 / weightp=2 / keyint=240 / keyint_min=23 / scenecut=40 / intra_refresh=0 / rc_lookahead=60 / rc=crf / mbtree=0 / crf=19.0 / qcomp=0.65 / qpmin=0 / qpmax=69 / qpstep=4 / vbv_maxrate=50000 / vbv_bufsize=62500 / crf_max=0.0 / nal_hrd=none / filler=0 / ip_ratio=1.40 / pb_ratio=1.30 / aq=3:0.80
Default : Yes
Forced : No

Audio #1
ID : 2
Format : AC-3
Format/Info : Audio Coding 3
Mode extension : CM (complete main)
Format settings, Endianness : Big
Codec ID : A_AC3
Duration : 1 h 29 min
Bit rate mode : Constant
Bit rate : 384 kb/s
Channel(s) : 6 channels
Channel positions : Front: L C R, Side: L R, LFE
Sampling rate : 48.0 kHz
Frame rate : 31.250 FPS (1536 spf)
Compression mode : Lossy
Stream size : 245 MiB (17%)
Title : HiWayGrope
Language : Russian
Default : Yes
Forced : No

Audio #2
ID : 3
Format : AC-3
Format/Info : Audio Coding 3
Mode extension : CM (complete main)
Format settings, Endianness : Big
Codec ID : A_AC3
Duration : 1 h 29 min
Bit rate mode : Constant
Bit rate : 384 kb/s
Channel(s) : 6 channels
Channel positions : Front: L C R, Side: L R, LFE
Sampling rate : 48.0 kHz
Frame rate : 31.250 FPS (1536 spf)
Compression mode : Lossy
Stream size : 245 MiB (17%)
Language : English
Default : No
Forced : No

Text #1
ID : 4
Format : UTF-8
Codec ID : S_TEXT/UTF8
Codec ID/Info : UTF-8 Plain Text
Duration : 1 h 28 min
Bit rate : 37 b/s
Count of elements : 873
Stream size : 24.2 KiB (0%)
Language : English
Default : No
Forced : No

Text #2
ID : 5
Format : UTF-8
Codec ID : S_TEXT/UTF8
Codec ID/Info : UTF-8 Plain Text
Duration : 1 h 28 min
Bit rate : 40 b/s
Count of elements : 1059
Stream size : 26.4 KiB (0%)
Title : SDH
Language : English
Default : No
Forced : No

Menu
00:00:00.000 : en:1
00:08:45.316 : en:2
00:21:25.659 : en:3
00:30:30.161 : en:4
00:40:32.221 : en:5
00:49:22.458 : en:6
01:01:05.452 : en:7
01:11:02.256 : en:8
01:21:46.691 : en:9
01:24:18.091 : en:10



Скачать Вечеринка монстров через торрент http://i6.imageban.ru/out/2017/09/18/2ff75c0c358795c5946784cc1680714d.png Скачать фильм Вечеринка монстров через торрент бесплантно в хорошем качестве Описание:Трое подростков проникают в дом богачей, чтобы ограбить его во время званого обеда, но оказываются в смертельной ловушке. ... 8.9 10 8
Info! Золотая раздача, скачанное не засчитывается.
Торрент: Зарегистрирован [2018-11-22 12:31] · скачан: 116 раз
Статус: T временная
Размер: 1.4 GB
Как cкачать? Как скачать Вечеринка монстров через торрент | qTorrent

% Раздел Тема Автор DL S | L
T Фильмы (WEB-DL 720p, 1080p) [ 3.35 GB ] Вечеринка монстров / Monster Party [2018 WEB-DL 1080p] DVO [HiWay Grope] sokol_ok Скачать
20 | 0
T Фильмы (мультфильмы) cо спонсором показа (Новинки AVI/MKV) [ 1.29 GB ] Вечеринка монстров / Monster Party [2018 WEB-DLRip Любительский ] oleg8 Скачать
8 | 0


>> Регистрируемся здесь <<






Отзывы и комментарии о схеме читаем и пишем здесь: ---> Отзывы и комментарии о схеме

Новые благодарочки в телеграм довольных пользователей:
скриншот   скриншот   скриншот   скриншот   скриншот
    Дорогой пользователь! Огромная просьба, поблагодарите релизера, оцените раздачу и оставьте свои комментарий, если Вы скачали Вечеринка монстров через торрент бесплатно! Внесите свою лепту в развитие PiratBit!
    Комментировать посты могут только пользователи прошедшие не сложную регистрацию
    Показать сообщения:    

    Вечеринка монстров через торрент
    Скачать бесплатно Вечеринка монстров
    Вечеринка монстров скачать торрент
    Вечеринка монстров смотреть онлайн
    Cкачать фильм Вечеринка монстров бесплатно
    Вечеринка монстров скачать торрент в хорошем качестве
    Вечеринка монстров смотреть онлайн бесплатно в хорошем качестве


    Вы не можете начинать темы
    Вы не можете отвечать на сообщения
    Вы не можете редактировать свои сообщения
    Вы не можете удалять свои сообщения
    Вы не можете голосовать в опросах
    Вы не можете прикреплять файлы к сообщениям
    Вы можете скачивать файлы