Ссылка на приватное зеркало нашего сайта всего за 1$. Внимание количество ограничено!!!

2 сезон

iTunes

1 сезон

1

iTunes

iTunes

iTunes

1 сезон

RePack

30

ИГРА 18+

pack

ВАЖНО

!!Акция!!

Alien_RageХит недели

RePack

MK11
pack

Забери бонус

RePack

jed

!!Акция!!

Alien_Rage

RePack

fifa19

RePack

Assassins Creed: Odyssey

RePack

NEED FOR SPEED™ PAYBACK

4 сезон

9 сезон

Бесстыжие 9 сезон

Все сериалы

все сериалы на PB.wtf

RePack

FAR CRY 5
  

Доктор Рихтер / Сезон: 2 / Серии: 1-16 из 16 (Андрей Прошкин, Илья Казанков, Максим Демченко) [2018 , драма, детектив, HDTV 1080p] Не требуется [Русский] R.G.Generalfilm pb.wtf

Доктор Рихтер через торрент pb.wtf

Размер: 39.94 GB | Добавлен: 1 год 10 мес. назад | Торрент скачан:32 раза
Скачать  

22-11-2018 13:10 Доктор Рихтер Скачать торрент  


Доктор Рихтер. Продолжение

Год выпуска: 2018

Страна: Россия
Жанр: драма, детектив
Продолжительность: 00:50:48
Перевод: Не требуется [Русский]

Субтитры: Нет

Сезон: 2

Количество серий: 1-16 из 16
Режиссер:
Андрей Прошкин, Илья Казанков, Максим Демченко
В ролях:

Алексей Серебряков (Андрей Александрович Рихтер, заведующий лечебно-диагностическим отделением), Дмитрий Ендальцев (Калинин, хирург), Полина Чернышова (Ольга Ходасевич, иммунолог), Павел Чинарёв (Руслан Егоршин, невролог), Анна Михалкова (Елизавета Никольская, эндокринолог и заведующая клиникой), Виталий Хаев (Иван Родионов, онколог, друг Рихтера), Александр Яценко (Григорий Филин, миллионер, жертвующий клинике большие суммы денег), Мария Миронова (юрист и бывшая гражданская жена Рихтера), Екатерина Вилкова (Ирина), Александр Робак (Шевцов), Ирина Пегова (мать Демьяна), Дарья Екамасова
Описание:
В продолжении популярного сериала доктор Андрей Александрович Рихтер и сотрудники возглавляемого им отделения клинической диагностики вновь разгадывают, казалось бы, неразрешимые медицинские загадки и спасают человеческие жизни. Рихтер – настоящий профессионал и даже гений своего дела. Его интересуют только самые сложные, запутанные случаи, рутинная же работа в больничной поликлинике навевает скуку и раздражает. Правильные диагнозы ему позволяет ставить не только глубокое знание медицины, но также понимание человеческой психологии, своеобразная дедукция и врачебная интуиция. Его история – это спор науки с человеческими слабостями, разума – с самой природой.

Качество: HDTV 1080p Запись с
Формат: MKV
Видео кодек: AVC
Аудио кодек: AC3
Видео: AVC, 1920x1080 (16:9), 7050 kbps, 25 fps, 0,136 bpp
Аудио: AC3 / 2.0 / 48 kHz / 192 kbps /
General
Unique ID : 176218087389814346056314147789133921849 (0x84925E7EF44D97AC8DDD1CBDAA6D3E39)
Complete name : E:\Запись с тв\Doktor Rixter S02.2018.HDTV 1080p.RG GeneralFilm\Doktor Rixter.s02.e03.2018.HDTV 1080p.by.White Smoke.R.G.Generalfilm.mkv
Format : Matroska
Format version : Version 4 / Version 2
File size : 2.56 GiB
Duration : 50 min
Overall bit rate mode : Constant
Overall bit rate : 7 220 kb/s
Movie name : Doktor Rixter.s02.e03.2018.HDTV 1080p.by.White Smoke.R.G.Generalfilm.mkv
Encoded date : UTC 2018-11-21 19:57:03
Writing application : mkvmerge v6.8.0 ('Theme for Great Cities') 64bit built on Mar 2 2014 21:34:26
Writing library : libebml v1.3.0 + libmatroska v1.4.1
Cover : Yes
Attachments : cover.jpg

Video
ID : 1
Format : AVC
Format/Info : Advanced Video Codec
Format profile : High@L4.1
Format settings, CABAC : Yes
Format settings, ReFrames : 3 frames
Codec ID : V_MPEG4/ISO/AVC
Duration : 50 min
Bit rate mode : Constant
Bit rate : 7 051 kb/s
Width : 1 920 pixels
Height : 1 080 pixels
Display aspect ratio : 16:9
Frame rate mode : Constant
Frame rate : 25.000 FPS
Standard : PAL
Color space : YUV
Chroma subsampling : 4:2:0
Bit depth : 8 bits
Scan type : Progressive
Bits/(Pixel*Frame) : 0.136
Stream size : 2.44 GiB (95%)
Default : Yes
Forced : No
Color range : Limited
Color primaries : BT.709
Transfer characteristics : BT.709
Matrix coefficients : BT.709

Audio
ID : 2
Format : AC-3
Format/Info : Audio Coding 3
Mode extension : CM (complete main)
Format settings, Endianness : Big
Codec ID : A_AC3
Duration : 50 min
Bit rate mode : Constant
Bit rate : 192 kb/s
Channel(s) : 2 channels
Channel positions : Front: L R
Sampling rate : 48.0 kHz
Frame rate : 31.250 FPS (1536 spf)
Compression mode : Lossy
Stream size : 69.8 MiB (3%)
Default : Yes
Forced : No
Внимание! Раздача ведётся путём добавления новых серий; при каждом добавлении создаётся новый торрент.
Чтобы начать докачку новой серии, пользователям необходимо сделать следующее:
1. Остановить скачивание;
2. Удалить старый торрент у себя из клиента (старые серии удалять не надо);
3. Скачать новый торрент и запустить его у себя в клиенте вместо старого, при этом указать клиенту путь в старую папку куда и должно происходить скачивание новых серий. Ваш клиент при этом должен произвести хеширование (проверку) старой папки и будет докачивать только те серии, которых у вас ещё нет. Старые серии при этом не удаляются, а продолжают раздаваться! Eсли вы уже удалили старые серии, то предотвратить повторную закачку старых серий можно, отжав галочку в соответствующих местах при запуске нового торрента.
pb.wtf



Скачать Доктор Рихтер через торрент http://interhit.org/img/2018-05/27/95e0rpzgd7ieqwngygkarjw3v.gif Скачать фильм Доктор Рихтер через торрент бесплантно в хорошем качестве Описание: В продолжении популярного сериала доктор Андрей Александрович Рихтер и сотрудники возглавляемого им отделения клинической ... 10 10 5
Info! Золотая раздача, скачанное не засчитывается.
Торрент: Зарегистрирован [2018-12-04 09:19] · скачан: 32 раз
Статус: √ проверено
Размер: 39.94 GB
Как cкачать? Как скачать Доктор Рихтер через торрент | qTorrent

28-11-2019 20:33  

Отключить всю рекламу на сайте

    Дорогой пользователь! Огромная просьба, поблагодарите релизера, оцените раздачу и оставьте свои комментарий, если Вы скачали Доктор Рихтер через торрент бесплатно! Внесите свою лепту в развитие PiratBit!
    Комментировать посты могут только пользователи прошедшие не сложную регистрацию
    Показать сообщения:    

    Доктор Рихтер через торрент
    Скачать бесплатно Доктор Рихтер
    Доктор Рихтер скачать торрент
    Доктор Рихтер смотреть онлайн
    Cкачать фильм Доктор Рихтер бесплатно
    Доктор Рихтер скачать торрент в хорошем качестве
    Доктор Рихтер смотреть онлайн бесплатно в хорошем качестве


    Вы не можете начинать темы
    Вы не можете отвечать на сообщения
    Вы не можете редактировать свои сообщения
    Вы не можете удалять свои сообщения
    Вы не можете голосовать в опросах
    Вы не можете прикреплять файлы к сообщениям
    Вы можете скачивать файлы