Ссылка на приватное зеркало нашего сайта всего за 1$. Внимание количество ограничено!!!

2 сезон

iTunes

1 сезон

1

2 сезон

2 сезон

iTunes

1 сезон

RePack

30

Ultimate

ВАЖНО

ИГРА 18+

pack

RePack

MK11
pack

Забери бонус

RePack

jed

!!Акция!!

Alien_Rage

RePack

fifa19

RePack

Assassins Creed: Odyssey

RePack

NEED FOR SPEED™ PAYBACK

4 сезон

9 сезон

Бесстыжие 9 сезон

Все сериалы

все сериалы на PB.wtf

RePack

FAR CRY 5
  

Землетрясение / The Quake / Skjelvet (Йон Андреас Андерсен / John Andreas Andersen) [2018, боевик, триллер, драма, WEB-DL 1080p] MVO [Horizon Studio] pb.wtf

Землетрясение через торрент pb.wtf

Размер: 3.74 GB | Добавлен: 2 года назад | Торрент скачан:390 раз
Скачать  

22-11-2018 16:30 Землетрясение Скачать торрент  

Землетрясение
The Quake / Skjelvet

Страна: Норвегия
Жанр: боевик, триллер, драма

Год выпуска: 2018
Продолжительность: 01:43:27

Перевод: Любительский (многоголосый, закадровый) [Horizon Studio]
Субтитры: английский, норвежский, финский, индонезийский, шведский, голландский
Оригинальная аудиодорожка: норвежский

Режиссер: Йон Андреас Андерсен / John Andreas Andersen

В ролях: Кристоффер Йонер, Эни Даль Торп, Hang Tran, Йонас Хофф Офтебро, Эдит Хогенруд-Сэнд, Kathrine Thorborg Johansen, Ravdeep Singh Bajwa, Tina Schei, Стиг Р. Амдам, Ingvild Haugstad

Описание:
В 1904 году норвежская столица пострадала от землетрясения силой 5,4 балла по шкале Рихтера. Стихия привела к разрушениям в городе, но ни один человек не пострадал. В настоящее время геологические исследования показывают, что в Осло почти еженедельно происходят слабые подземные толчки, которые могут служить предвестниками ещё более сильного землетрясения.



Релиз:

Автор релиза: stalkerok
Без рекламы!

Сэмпл

Качество видео: WEB-DL 1080p [The.Quake.1080p.WEB-DL.H264.AC3-EVO]
Формат видео: MKV
Видео кодек: AVC
Аудио кодек: AC3
Видео: AVC, 4590 Кбит/сек, 1920x804 (2.40:1), 25 кадр/сек
Аудио №1: AC3, 192 Кбит/сек, 48 КГц, 2.0 - русский
Аудио №2: AC3, 384 Кбит/сек, 48 КГц, 5.1 - норвежский
Навигация по главам: есть
Общее
Уникальный идентификатор : 235266174304885381739012495719548314761 (0xB0FE9DF3AE3A7852795377FF8BAFE489)
Полное имя : O:\Temp\The Quake\The.Quake.2018.WEB-DL.1080p.Rus.Nor.stalkerok.New-Team.mkv
Формат : Matroska
Версия формата : Version 4 / Version 2
Размер файла : 3,74 Гбайт
Продолжительность : 1 ч. 43 м.
Общий поток : 5169 Кбит/сек
Название фильма : The Quake / Skjelvet (2018) | release by stalkerok
Дата кодирования : UTC 2018-11-22 13:51:40
Программа кодирования : mkvmerge v28.2.0 ('The Awakening') 64-bit
Библиотека кодирования : libebml v1.3.6 + libmatroska v1.4.9

Видео
Идентификатор : 1
Формат : AVC
Формат/Информация : Advanced Video Codec
Профиль формата : High@L4
Параметр CABAC формата : Да
Параметр ReFrames формата : 5 кадров
Идентификатор кодека : V_MPEG4/ISO/AVC
Продолжительность : 1 ч. 43 м.
Битрейт : 4590 Кбит/сек
Ширина : 1920 пикселей
Высота : 804 пикселя
Соотношение сторон : 2,40:1
Режим частоты кадров : Постоянный
Частота кадров : 25,000 кадров/сек
Цветовое пространство : YUV
Субдискретизация насыщенности : 4:2:0
Битовая глубина : 8 бит
Тип развёртки : Прогрессивная
Бит/(Пиксели*Кадры) : 0.119
Размер потока : 3,32 Гбайт (89%)
Заголовок : The.Quake.1080p.WEB-DL.H264.AC3-EVO
Default : Да
Forced : Нет
Цветовой диапазон : Limited
Основные цвета : BT.709
Характеристики трансфера : BT.709
Коэффициенты матрицы : BT.709

Аудио #1
Идентификатор : 2
Формат : AC-3
Формат/Информация : Audio Coding 3
Расширение режима : CM (complete main)
Параметр Endianness формата : Big
Идентификатор кодека : A_AC3
Продолжительность : 1 ч. 43 м.
Вид битрейта : Постоянный
Битрейт : 192 Кбит/сек
Каналы : 2 канала
Расположение каналов : Front: L R
Частота : 48,0 КГц
Частота кадров : 31,250 кадров/сек (1536 spf)
Метод сжатия : С потерями
Размер потока : 142 Мбайт (4%)
Заголовок : Horizon Studio
Язык : Russian
Default : Да
Forced : Нет

Аудио #2
Идентификатор : 3
Формат : AC-3
Формат/Информация : Audio Coding 3
Расширение режима : CM (complete main)
Параметр Endianness формата : Big
Идентификатор кодека : A_AC3
Продолжительность : 1 ч. 43 м.
Вид битрейта : Постоянный
Битрейт : 384 Кбит/сек
Каналы : 6 каналов
Расположение каналов : Front: L C R, Side: L R, LFE
Частота : 48,0 КГц
Частота кадров : 31,250 кадров/сек (1536 spf)
Метод сжатия : С потерями
Размер потока : 284 Мбайт (7%)
Язык : Norwegian
Default : Нет
Forced : Нет

Текст #1
Идентификатор : 4
Формат : UTF-8
Идентификатор кодека : S_TEXT/UTF8
Идентификатор кодека/Информация : UTF-8 Plain Text
Продолжительность : 1 ч. 42 м.
Битрейт : 24 бит/сек
Count of elements : 501
Размер потока : 18,2 Кбайт (0%)
Язык : English
Default : Нет
Forced : Нет

Текст #2
Идентификатор : 5
Формат : UTF-8
Идентификатор кодека : S_TEXT/UTF8
Идентификатор кодека/Информация : UTF-8 Plain Text
Продолжительность : 1 ч. 42 м.
Битрейт : 23 бит/сек
Count of elements : 499
Размер потока : 17,7 Кбайт (0%)
Язык : Norwegian
Default : Нет
Forced : Нет

Текст #3
Идентификатор : 6
Формат : UTF-8
Идентификатор кодека : S_TEXT/UTF8
Идентификатор кодека/Информация : UTF-8 Plain Text
Продолжительность : 1 ч. 42 м.
Битрейт : 23 бит/сек
Count of elements : 530
Размер потока : 17,6 Кбайт (0%)
Язык : Finnish
Default : Нет
Forced : Нет

Текст #4
Идентификатор : 7
Формат : UTF-8
Идентификатор кодека : S_TEXT/UTF8
Идентификатор кодека/Информация : UTF-8 Plain Text
Продолжительность : 1 ч. 42 м.
Битрейт : 26 бит/сек
Count of elements : 532
Размер потока : 19,8 Кбайт (0%)
Язык : Indonesian
Default : Нет
Forced : Нет

Текст #5
Идентификатор : 8
Формат : UTF-8
Идентификатор кодека : S_TEXT/UTF8
Идентификатор кодека/Информация : UTF-8 Plain Text
Продолжительность : 1 ч. 42 м.
Битрейт : 25 бит/сек
Count of elements : 531
Размер потока : 19,2 Кбайт (0%)
Язык : Swedish
Default : Нет
Forced : Нет

Текст #6
Идентификатор : 9
Формат : UTF-8
Идентификатор кодека : S_TEXT/UTF8
Идентификатор кодека/Информация : UTF-8 Plain Text
Продолжительность : 1 ч. 37 м.
Битрейт : 23 бит/сек
Count of elements : 494
Размер потока : 17,1 Кбайт (0%)
Язык : Dutch
Default : Нет
Forced : Нет

Меню
00:00:00.000 : en:Kapittel 01
00:15:00.000 : en:Kapittel 02
00:30:00.000 : en:Kapittel 03
00:45:00.000 : en:Kapittel 04
01:00:00.000 : en:Kapittel 05
01:15:00.000 : en:Kapittel 06
01:30:00.000 : en:Kapittel 07
01:38:04.000 : en:Kapittel 08
pb.wtf



Скачать Землетрясение через торрент http://i6.imageban.ru/out/2017/09/18/2ff75c0c358795c5946784cc1680714d.png Скачать фильм Землетрясение через торрент бесплантно в хорошем качестве Описание:В 1904 году норвежская столица пострадала от землетрясения силой 5,4 балла по шкале Рихтера. Стихия привела к разрушениям в ... 10 10 10
Info! Золотая раздача, скачанное не засчитывается.
Торрент: Зарегистрирован [2018-11-22 16:30] · скачан: 390 раз
Статус: T временная
Размер: 3.74 GB
Как cкачать? Как скачать Землетрясение через торрент | qTorrent

% Раздел Тема Автор DL S | L
Фильмы [HD 720p, 1080p] (Хороший звук DUB, MVO) [ 10.11 GB ] Землетрясение / The Quake / Skjelvet [2018 BDRip 1080p] bober100 Скачать
1 | 0

28-11-2019 20:33  

Отключить всю рекламу на сайте

    Дорогой пользователь! Огромная просьба, поблагодарите релизера, оцените раздачу и оставьте свои комментарий, если Вы скачали Землетрясение через торрент бесплатно! Внесите свою лепту в развитие PiratBit!
    Комментировать посты могут только пользователи прошедшие не сложную регистрацию
    Показать сообщения:    

    Землетрясение через торрент
    Скачать бесплатно Землетрясение
    Землетрясение скачать торрент
    Землетрясение смотреть онлайн
    Cкачать фильм Землетрясение бесплатно
    Землетрясение скачать торрент в хорошем качестве
    Землетрясение смотреть онлайн бесплатно в хорошем качестве


    Вы не можете начинать темы
    Вы не можете отвечать на сообщения
    Вы не можете редактировать свои сообщения
    Вы не можете удалять свои сообщения
    Вы не можете голосовать в опросах
    Вы не можете прикреплять файлы к сообщениям
    Вы можете скачивать файлы