Ссылка на приватное зеркало всего за 1$. Внимание количество ограничено!!!

OK

1+1

iTunes

мы

OK

1

WEB-DLRip

Джокер

Пифагор

Ведьмак / The Witcher сериал

iTunes

ПШазам

ОК

Оно 2

iTunes

30
pack

Вам бонус

ВАЖНО

!!Акция!!

Alien_RageХит недели

RePack

Resident Evil 21

ИГРА 18+

pack

RePack

jed

RePack

fifa19

RePack

Assassins Creed: Odyssey

RePack

NEED FOR SPEED™ PAYBACK

4 сезон

9 сезон

Бесстыжие 9 сезон

Все сериалы

все сериалы на PB.wtf

RePack

FAR CRY 5
  

Истории Арбуза / To Kill a Watermelon (Жехао Гао) [2017, драма, WEBRip 720p] MVO [КОЛОБОК] pb.wtf

Истории Арбуза через торрент pb.wtf

Размер: 2.92 GB | Добавлен: 1 год 2 мес. назад | Торрент скачан:9 раз
Скачать  

22-11-2018 17:09 Истории Арбуза Скачать торрент  

Истории Арбуза / To Kill a WatermelonГод выпуска: 2017
Страна: Китай
Жанр: драма
Продолжительность: 01:28:16
Перевод: Любительский (многоголосый) | КОЛОБОК
Субтитры: отсутствуют

Режиссер: Жехао Гао

rating

В ролях:

Йонг Донг, Минг Ху, Хуа Лиа

Описание:

Целыми днями торговец проводит в беседах со своим самым терпеливым слушателем - Арбуза, к сожалению, кроме арбузоголового остальные его слушать не желают, а наоборот изливают на него потоки всякой дичи. И ситуация только ухудшается, когда торговец оказывается в неоплатном долгу перед убицей находящимся в розыске...

Качество: WEBRip 720p
Формат: MKV

Видео: h.264,4 353 Кбит/с, 1280x536
Аудио#1: Русский, (AC3, 2 ch, 384 Кбит/с)
скриншот  скриншот  скриншот  

Общее
Уникальный идентификатор : 246439648951979599972568959722323759299 (0xB9668CC8DFAB9715919EE96E5FACD0C3)
Полное имя : D:\To.Kill.a.Watermelon.2018.Pk.WEBRip.72Op.mkv
Формат : Matroska
Версия формата : Version 2
Размер файла : 2,92 Гбайт
Продолжительность : 1 ч. 28 м.
Режим общего битрейта : Переменный
Общий поток : 4739 Кбит/сек
Дата кодирования : UTC 2018-11-19 16:06:41
Программа кодирования : mkvmerge v8.3.0 ('Over the Horizon') 64bit
Библиотека кодирования : libebml v1.3.1 + libmatroska v1.4.2

Видео
Идентификатор : 1
Формат : AVC
Формат/Информация : Advanced Video Codec
Профиль формата : High@L4.1
Параметр CABAC формата : Да
Параметр RefFrames формата : 4 кадра
Идентификатор кодека : V_MPEG4/ISO/AVC
Продолжительность : 1 ч. 28 м.
Вид битрейта : Переменный
Битрейт : 4353 Кбит/сек
Максимальный битрейт : 5000 Кбит/сек
Ширина : 1280 пикселей
Высота : 536 пикселей
Соотношение сторон : 2,40:1
Режим частоты кадров : Постоянный
Частота кадров : 23,976 (24000/1001) кадра/сек
Стандарт вещания : Component
Цветовое пространство : YUV
Субдискретизация насыщенности : 4:2:0
Битовая глубина : 8 бит
Тип развёртки : Прогрессивная
Бит/(Пиксели*Кадры) : 0.259
Размер потока : 2,63 Гбайт (90%)
Default : Да
Forced : Нет
Цветовой диапазон : Limited
Основные цвета : BT.709
Характеристики трансфера : BT.709
Коэффициенты матрицы : BT.709

Аудио
Идентификатор : 2
Формат : AC-3
Формат/Информация : Audio Coding 3
Расширение режима : CM (complete main)
Параметр Endianness формата : Big
Идентификатор кодека : A_AC3
Продолжительность : 1 ч. 28 м.
Вид битрейта : Постоянный
Битрейт : 384 Кбит/сек
Каналы : 2 канала
Расположение каналов : Front: L R
Частота : 48,0 КГц
Частота кадров : 31,250 кадров/сек (1536 spf)
Метод сжатия : С потерями
Размер потока : 242 Мбайт (8%)
Default : Да
Forced : Нет

pb.wtf



Скачать Истории Арбуза через торрент https://d.radikal.ru/d42/1811/74/25f5c7e7dc55.jpg Скачать фильм Истории Арбуза через торрент бесплантно в хорошем качестве Описание: Целыми днями торговец проводит в беседах со своим самым терпеливым слушателем - Арбуза, к сожалению, кроме арбузоголового ... 10 10 2
Торрент: Зарегистрирован [2018-11-22 17:09] · скачан: 9 раз
Статус: T временная
Размер: 2.92 GB
Как cкачать? Как скачать Истории Арбуза через торрент | qTorrent

% Раздел Тема Автор DL S | L
T Фильмы (мультфильмы) cо спонсором показа (Новинки AVI/MKV) [ 1.37 GB ] Истории Арбуза / To Kill a Watermelon [2017 WEBRip] MVO [КОЛОБОК] bober100 Скачать
1 | 0

28-11-2019 20:33  

Отключить всю рекламу на сайте

    Дорогой пользователь! Огромная просьба, поблагодарите релизера, оцените раздачу и оставьте свои комментарий, если Вы скачали Истории Арбуза через торрент бесплатно! Внесите свою лепту в развитие PiratBit!
    Комментировать посты могут только пользователи прошедшие не сложную регистрацию
    Показать сообщения:    

    Истории Арбуза через торрент
    Скачать бесплатно Истории Арбуза
    Истории Арбуза скачать торрент
    Истории Арбуза смотреть онлайн
    Cкачать фильм Истории Арбуза бесплатно
    Истории Арбуза скачать торрент в хорошем качестве
    Истории Арбуза смотреть онлайн бесплатно в хорошем качестве


    Вы не можете начинать темы
    Вы не можете отвечать на сообщения
    Вы не можете редактировать свои сообщения
    Вы не можете удалять свои сообщения
    Вы не можете голосовать в опросах
    Вы не можете прикреплять файлы к сообщениям
    Вы можете скачивать файлы