Ссылка на приватное зеркало нашего сайта всего за 1$. Внимание количество ограничено!!!

2 сезон

iTunes

iTunes

1

iTunes

iTunes

iTunes

WEBRip

iTunes

30
pack

Вам бонус

ВАЖНО

!!Акция!!

Alien_RageХит недели

RePack

Horizon Zero Dawn

ИГРА 18+

pack

RePack

jed

!!Акция!!

Alien_Rage

RePack

fifa19

RePack

Assassins Creed: Odyssey

RePack

NEED FOR SPEED™ PAYBACK

4 сезон

9 сезон

Бесстыжие 9 сезон

Все сериалы

все сериалы на PB.wtf

RePack

FAR CRY 5
  

Что еще остается / What Still Remains (Джош Мендоза) [2018, Триллер, драма, BDRip 720p] MVO ["Синема УС"] pb.wtf

Что еще остается через торрент pb.wtf

Размер: 4.75 GB | Добавлен: 1 год 10 мес. назад | Торрент скачан:36 раз
Скачать  

22-11-2018 17:28 Что еще остается Скачать торрент  

Что еще остается / What Still Remains Год выпуска: 2018
Страна: США
Жанр: Триллер, драма
Продолжительность: 01:34:13
Перевод: Любительский (многоголосый) | "Синема УС"
Субтитры: отсутствуют

Режиссер: Джош Мендоза

rating

В ролях:

Лулу Антарикса, Колин О’Донохью, Мими Роджерс, Дон Норвуд, Джефф Кобер, Питер О’Брайэн, Рошон Феган, Сиена Гоинс, Крис Эллис, Тобиаш Элинек

Описание:

Потеряв свою семью, молодая девушка выживает в мире, охваченном смертельной болезнью. Когда одинокий путник предлагает ей место в своей общине, ей приходится выбирать между возможностью лучшей жизни и риском довериться ему.

Качество: BDRip 720p
Формат: MKV

Видео: h.264,6 762 kb/s, 1280x532
Аудио#1: Русский (AC3, 2 ch, 448 Кбит/с)
скриншот  скриншот  скриншот  

Общее
Уникальный идентификатор : 192044879613804190268630121326216654697 (0x907A7F99340B01CAA4DB661F59FAAF69)
Полное имя : D:\What.Still.Remains.2O18.P.BDRip.72Op_KOSHARA.mkv
Формат : Matroska
Версия формата : Version 2
Размер файла : 4,75 Гбайт
Продолжительность : 1 ч. 34 м.
Режим общего битрейта : Переменный
Общий поток : 7212 Кбит/сек
Дата кодирования : UTC 2018-11-19 16:04:38
Программа кодирования : mkvmerge v8.3.0 ('Over the Horizon') 64bit
Библиотека кодирования : libebml v1.3.1 + libmatroska v1.4.2

Видео
Идентификатор : 1
Формат : AVC
Формат/Информация : Advanced Video Codec
Профиль формата : High@L4.1
Параметр CABAC формата : Да
Параметр RefFrames формата : 4 кадра
Идентификатор кодека : V_MPEG4/ISO/AVC
Продолжительность : 1 ч. 34 м.
Вид битрейта : Переменный
Битрейт : 6762 Кбит/сек
Максимальный битрейт : 7500 Кбит/сек
Ширина : 1280 пикселей
Высота : 532 пикселя
Соотношение сторон : 2,40:1
Режим частоты кадров : Постоянный
Частота кадров : 23,976 (24000/1001) кадра/сек
Стандарт вещания : Component
Цветовое пространство : YUV
Субдискретизация насыщенности : 4:2:0
Битовая глубина : 8 бит
Тип развёртки : Прогрессивная
Бит/(Пиксели*Кадры) : 0.405
Размер потока : 4,36 Гбайт (92%)
Default : Да
Forced : Нет
Цветовой диапазон : Limited
Основные цвета : BT.709
Характеристики трансфера : BT.709
Коэффициенты матрицы : BT.709

Аудио
Идентификатор : 2
Формат : AC-3
Формат/Информация : Audio Coding 3
Расширение режима : CM (complete main)
Параметр Endianness формата : Big
Идентификатор кодека : A_AC3
Продолжительность : 1 ч. 34 м.
Вид битрейта : Постоянный
Битрейт : 448 Кбит/сек
Каналы : 2 канала
Расположение каналов : Front: L R
Частота : 48,0 КГц
Частота кадров : 31,250 кадров/сек (1536 spf)
Метод сжатия : С потерями
Размер потока : 302 Мбайт (6%)
Default : Да
Forced : Нет

pb.wtf



Скачать Что еще остается через торрент https://d.radikal.ru/d00/1811/3d/6177d96eab76.jpg Скачать фильм Что еще остается через торрент бесплантно в хорошем качестве Описание: Потеряв свою семью, молодая девушка выживает в мире, охваченном смертельной болезнью. Когда одинокий путник предлагает ей место в ... 10 10 6
Торрент: Зарегистрирован [2018-11-22 17:28] · скачан: 36 раз
Статус: # сомнительно
Размер: 4.75 GB
Как cкачать? Как скачать Что еще остается через торрент | qTorrent

% Раздел Тема Автор DL S | L
T Фильмы (мультфильмы) cо спонсором показа (Новинки AVI/MKV) [ 1.37 GB ] Что еще остается / What Still Remains [2018 HDRip] MVO ["Синема УС"] bober100 Скачать
1 | 0

28-11-2019 20:33  

Отключить всю рекламу на сайте

22-11-2018 20:26 Что еще остается Скачать торрент  

Постапокалипсис?pb.wtf



    Дорогой пользователь! Огромная просьба, поблагодарите релизера, оцените раздачу и оставьте свои комментарий, если Вы скачали Что еще остается через торрент бесплатно! Внесите свою лепту в развитие PiratBit!
    Комментировать посты могут только пользователи прошедшие не сложную регистрацию
    Показать сообщения:    

    Что еще остается через торрент
    Скачать бесплатно Что еще остается
    Что еще остается скачать торрент
    Что еще остается смотреть онлайн
    Cкачать фильм Что еще остается бесплатно
    Что еще остается скачать торрент в хорошем качестве
    Что еще остается смотреть онлайн бесплатно в хорошем качестве


    Вы не можете начинать темы
    Вы не можете отвечать на сообщения
    Вы не можете редактировать свои сообщения
    Вы не можете удалять свои сообщения
    Вы не можете голосовать в опросах
    Вы не можете прикреплять файлы к сообщениям
    Вы можете скачивать файлы