Ссылка на приватное зеркало всего за 1$. Внимание количество ограничено!!!

iTunes

1+1

iTunes

мы

WEB-DL

1

iTunes

Чернобыль

iTunes

Ральф против интернета

Лицензия

ПШазам

Лицензия

Оно 2

Лицензия

30
pack

Вам бонус

ВАЖНО

!!Акция!!

Alien_RageХит недели

RePack

Resident Evil 21

ИГРА 18+

pack

RePack

jed

!!Акция!!

Alien_Rage

RePack

fifa19

RePack

Assassins Creed: Odyssey

RePack

NEED FOR SPEED™ PAYBACK

3 сезон

9 сезон

Бесстыжие 9 сезон

Все сериалы

все сериалы на PB.wtf

RePack

FAR CRY 5
Ребята, катастрофически не хватает 1900р. для оплаты серверов за Октябрь (всвязи с блокировками трафик упал в 3 раза), 1-2р., выручайте.
  

Рождественские хроники / The Christmas Chronicles (Клэй Кэйтис / Clay Kaytis) [2018, фэнтези, комедия, приключения, WEB-DLRip-AVC] Dub pb.wtf

Рождественские хроники через торрент pb.wtf

Раздают: 6 [ 0 KB/s ]
Размер: 1.49 GB | Добавлен: 1 год назад | Торрент скачан:1113 раз
Скачать  

22-11-2018 19:04 Рождественские хроники Скачать торрент  

Рождественские хроники
The Christmas Chronicles

Страна: США
Жанр: фэнтези, комедия, приключения, семейный
Год выпуска: 2018
Продолжительность: 01:44:27

Перевод: Профессиональный (полное дублирование) [Пифагор]
Субтитры: русские (форсированные, полные), английские (SDH)
Оригинальная аудиодорожка: английский

Режиссер: Клэй Кэйтис / Clay Kaytis

В ролях: Курт Рассел, Кимберли Уильямс-Пэйсли, Оливер Хадсон, Джуда Льюис, Ламорн Моррис, Дэрби Кэмп, Лорен Коллинз, Джереми Рэймонд, Мартин Роуч, Kayla Lakhani, Джефф Теравайнен, Ишан Моррис

Описание:
В канун Рождества брат с сестрой - Кейт и Тедди Пирс - собираются заснять на видео появление Санты. Дерзкий замысел выливается в необыкновенное приключение, о котором дети не могли даже мечтать. Вместе с преданными эльфами и волшебными летающими оленями они помогают Санте спасти всеми любимый праздник.



Релиз:

Автор рипа: stalkerok
За звук спасибо EniaHD

Сэмпл

Качество видео: WEB-DLRip-AVC [The.Christmas.Chronicles.2018.1080p.NF.WEB-DL.DD5.1.H264-CMRG]
Формат видео: MKV
Видео кодек: AVC
Аудио кодек: AC3
Видео: AVC, 1274 Кбит/сек, 936x506 (1.85:1), 24 кадр/сек
Аудио №1: AC3, 384 Кбит/сек, 48 КГц, 5.1 - русский
Аудио №2: AC3, 384 Кбит/сек, 48 КГц, 5.1 - английский
---[Information] [22.11.2018 21:50:53] x264 [info]: frame I:1372 Avg QP:17.75 size: 40530
---[Information] [22.11.2018 21:50:53] x264 [info]: frame P:33891 Avg QP:20.06 size: 14370
---[Information] [22.11.2018 21:50:53] x264 [info]: frame B:115143 Avg QP:23.09 size: 3960

Общее
Уникальный идентификатор : 323866445901929915109079014738828187936 (0xF3A6689AF56262FF3BA8D61C8453D920)
Полное имя : O:\Temp\The Christmas Chronicles\The.Christmas.Chronicles.2018.WEB-DLRip.x264.Rus.Eng.stalkerok.New-Team.mkv
Формат : Matroska
Версия формата : Version 4 / Version 2
Размер файла : 1,49 Гбайт
Продолжительность : 1 ч. 44 м.
Общий поток : 2045 Кбит/сек
Название фильма : The Christmas Chronicles (2018) | Rip by stalkerok
Дата кодирования : UTC 2018-11-22 18:54:00
Программа кодирования : mkvmerge v28.2.0 ('The Awakening') 64-bit
Библиотека кодирования : libebml v1.3.6 + libmatroska v1.4.9

Видео
Идентификатор : 1
Формат : AVC
Формат/Информация : Advanced Video Codec
Профиль формата : High@L4.1
Параметр CABAC формата : Да
Параметр ReFrames формата : 12 кадров
Идентификатор кодека : V_MPEG4/ISO/AVC
Продолжительность : 1 ч. 44 м.
Битрейт : 1275 Кбит/сек
Ширина : 936 пикселей
Высота : 506 пикселей
Соотношение сторон : 1,85:1
Режим частоты кадров : Постоянный
Частота кадров : 24,000 кадра/сек
Цветовое пространство : YUV
Субдискретизация насыщенности : 4:2:0
Битовая глубина : 8 бит
Тип развёртки : Прогрессивная
Бит/(Пиксели*Кадры) : 0.112
Размер потока : 952 Мбайт (62%)
Заголовок : The Christmas Chronicles (2018) | Rip by stalkerok
Библиотека кодирования : x264 core 157 r2932 303c484
Настройки программы : cabac=1 / ref=12 / deblock=1:-3:-2 / analyse=0x3:0x133 / me=umh / subme=10 / psy=1 / psy_rd=1.00:0.00 / mixed_ref=1 / me_range=32 / chroma_me=1 / trellis=2 / 8x8dct=1 / cqm=0 / deadzone=21,11 / fast_pskip=0 / chroma_qp_offset=-2 / threads=12 / lookahead_threads=3 / sliced_threads=0 / nr=0 / decimate=1 / interlaced=0 / bluray_compat=0 / constrained_intra=0 / bframes=14 / b_pyramid=2 / b_adapt=2 / b_bias=0 / direct=3 / weightb=1 / open_gop=0 / weightp=2 / keyint=240 / keyint_min=23 / scenecut=40 / intra_refresh=0 / rc_lookahead=60 / rc=crf / mbtree=0 / crf=20.3 / qcomp=0.65 / qpmin=0 / qpmax=69 / qpstep=4 / vbv_maxrate=50000 / vbv_bufsize=62500 / crf_max=0.0 / nal_hrd=none / filler=0 / ip_ratio=1.40 / pb_ratio=1.30 / aq=3:0.80
Default : Да
Forced : Нет

Аудио #1
Идентификатор : 2
Формат : AC-3
Формат/Информация : Audio Coding 3
Расширение режима : CM (complete main)
Параметр Endianness формата : Big
Идентификатор кодека : A_AC3
Продолжительность : 1 ч. 44 м.
Вид битрейта : Постоянный
Битрейт : 384 Кбит/сек
Каналы : 6 каналов
Расположение каналов : Front: L C R, Side: L R, LFE
Частота : 48,0 КГц
Частота кадров : 31,250 кадров/сек (1536 spf)
Метод сжатия : С потерями
Размер потока : 287 Мбайт (19%)
Заголовок : Russian
Язык : Russian
Default : Да
Forced : Нет

Аудио #2
Идентификатор : 3
Формат : AC-3
Формат/Информация : Audio Coding 3
Расширение режима : CM (complete main)
Параметр Endianness формата : Big
Идентификатор кодека : A_AC3
Продолжительность : 1 ч. 44 м.
Вид битрейта : Постоянный
Битрейт : 384 Кбит/сек
Каналы : 6 каналов
Расположение каналов : Front: L C R, Side: L R, LFE
Частота : 48,0 КГц
Частота кадров : 31,250 кадров/сек (1536 spf)
Метод сжатия : С потерями
Размер потока : 287 Мбайт (19%)
Заголовок : English
Язык : English
Default : Нет
Forced : Нет

Текст #1
Идентификатор : 4
Формат : UTF-8
Идентификатор кодека : S_TEXT/UTF8
Идентификатор кодека/Информация : UTF-8 Plain Text
Продолжительность : 1 ч. 43 м.
Битрейт : 5 бит/сек
Count of elements : 102
Размер потока : 4,22 Кбайт (0%)
Заголовок : Russian [Forced]
Язык : Russian
Default : Да
Forced : Нет

Текст #2
Идентификатор : 5
Формат : UTF-8
Идентификатор кодека : S_TEXT/UTF8
Идентификатор кодека/Информация : UTF-8 Plain Text
Продолжительность : 1 ч. 43 м.
Битрейт : 84 бит/сек
Count of elements : 1500
Размер потока : 63,5 Кбайт (0%)
Заголовок : Russian [Full]
Язык : Russian
Default : Нет
Forced : Нет

Текст #3
Идентификатор : 6
Формат : UTF-8
Идентификатор кодека : S_TEXT/UTF8
Идентификатор кодека/Информация : UTF-8 Plain Text
Продолжительность : 1 ч. 40 м.
Битрейт : 81 бит/сек
Count of elements : 1908
Размер потока : 60,3 Кбайт (0%)
Заголовок : English [SDH]
Язык : English
Default : Нет
Forced : Нет
pb.wtf



Скачать Рождественские хроники через торрент http://i6.imageban.ru/out/2017/09/18/2ff75c0c358795c5946784cc1680714d.png Скачать фильм Рождественские хроники через торрент бесплантно в хорошем качестве Описание:В канун Рождества брат с сестрой - Кейт и Тедди Пирс - собираются заснять на видео появление Санты. Дерзкий замысел выливается в ... 9.9 10 17
Info! Золотая раздача, скачанное не засчитывается.
Торрент: Зарегистрирован [2018-11-22 19:04] · скачан: 1 113 раз
Статус: √ проверено
Размер: 1.49 GB
Как cкачать? Как скачать Рождественские хроники через торрент | qTorrent

% Раздел Тема Автор DL S | L
Фильмы 2018 [DVDrip, WEB-DLRip, HDrip] (DUB, MVO) [ 2.1 GB ] Рождественские хроники / The Christmas Chronicles [2018 WEB-DLRip-AVC] Dub - ExKinoRay Enigma2010 Скачать
4 | 0
Фильмы 2018 [DVDrip, WEB-DLRip, HDrip] (DUB, MVO) [ 1.46 GB ] Рождественские хроники / The Christmas Chronicles [2018 WEBRip] DUB [Пифагор] bober100 Скачать
2 | 0
Фильмы (WEB-DL 720p, 1080p) [ 4.25 GB ] Рождественские хроники / The Christmas Chronicles [2018 WEB-DL 1080p] Dub sokol_ok Скачать
3 | 0
# Фильмы (WEB-DL 720p, 1080p) [ 2.64 GB ] Рождественские хроники / The Christmas Chronicles [2018 WEBRip 720p] DUB [Пифагор] bober100 Скачать
2 | 0

28-11-2019 20:33  

Отключить всю рекламу на сайте

23-11-2018 08:54 Рождественские хроники Скачать торрент  

Добрый фильм для всей семьиpb.wtf



    Дорогой пользователь! Огромная просьба, поблагодарите релизера, оцените раздачу и оставьте свои комментарий, если Вы скачали Рождественские хроники через торрент бесплатно! Внесите свою лепту в развитие PiratBit!
    Комментировать посты могут только пользователи прошедшие не сложную регистрацию
    Показать сообщения:    

    Рождественские хроники через торрент
    Скачать бесплатно Рождественские хроники
    Рождественские хроники скачать торрент
    Рождественские хроники смотреть онлайн
    Cкачать фильм Рождественские хроники бесплатно
    Рождественские хроники скачать торрент в хорошем качестве
    Рождественские хроники смотреть онлайн бесплатно в хорошем качестве


    Вы не можете начинать темы
    Вы не можете отвечать на сообщения
    Вы не можете редактировать свои сообщения
    Вы не можете удалять свои сообщения
    Вы не можете голосовать в опросах
    Вы не можете прикреплять файлы к сообщениям
    Вы можете скачивать файлы