Ссылка на приватное зеркало нашего сайта всего за 1$. Внимание количество ограничено!!!

2 сезон

iTunes

1 сезон

1

2 сезон

2 сезон

iTunes

1 сезон

RePack

30

Новинка

ВАЖНО

ИГРА 18+

pack

RePack

MK11
pack

Забери бонус

RePack

jed

!!Акция!!

Alien_Rage

RePack

fifa19

RePack

Assassins Creed: Odyssey

RePack

NEED FOR SPEED™ PAYBACK

4 сезон

9 сезон

Бесстыжие 9 сезон

Все сериалы

все сериалы на PB.wtf

RePack

FAR CRY 5
  

Сплошной отстой! / Everything Sucks! / Сезон: 1 / Серии: 1-10 из 10 (Ри Руссо-Янг) [2018, комедия, WEBRip 1080p] MVO [TVShows] pb.wtf

Сплошной отстой! через торрент pb.wtf

Размер: 6.67 GB | Добавлен: 2 года назад | Торрент скачан:13 раз
Скачать  

22-11-2018 20:24 Сплошной отстой! Скачать торрент  

Сплошной отстой! / Everything Sucks!
Год выпуска: 2018
Страна: США
Жанр: комедия
Продолжительность: ~00:22:00
Перевод: Профессиональный многоголосый | TVShows
Субтитры: английские

Режиссер: Ри Руссо-Янг

rating

В ролях:

Патрик Дарро, Пейтон Кеннеди, Рио Манджини, Сидни Свини, Макс Хаскинс, Николь МакКалло

Описание:

События разворачиваются в маленьком городке в Орегоне образца 1996 года. Ученики одной средней школы объединяются для съёмок фильма, чтобы хоть как-то пережить скучные школьные будни.

Качество: 1080p
Формат: MKV

Видео: 1920x1080 (16:9), 23.976 fps, MPEG-4 AVC ~3 040 kbps avg
Аудио#1: 48.0 kHz, AC3 Dolby Digital, 3/2 (L,C,R,l,r) + LFE ch, ~384 kbps | RUS
Аудио#2: 48.0 kHz, AC3 Dolby Digital, 3/2 (L,C,R,l,r) + LFE ch, ~384 kbps | ENG
скриншот  скриншот  скриншот  

General
Unique ID : 139923673045197351067762582179611576262 (0x694451B615A3E97E1E4C9CE6B15687C6)
Complete name : Everything.Sucks.S01E01.1080p.TVShows.mkv
Format : Matroska
Format version : Version 4 / Version 2
File size : 660 MiB
Duration : 23 min 58 s
Overall bit rate mode : Variable
Overall bit rate : 3 848 kb/s
Encoded date : UTC 2018-10-01 07:52:17
Writing application : mkvmerge v24.0.0 ('Beyond The Pale') 64-bit
Writing library : libebml v1.3.6 + libmatroska v1.4.9

Video
ID : 1
Format : AVC
Format/Info : Advanced Video Codec
Format profile : Main@L4
Format settings : CABAC / 3 Ref Frames
Format settings, CABAC : Yes
Format settings, ReFrames : 3 frames
Codec ID : V_MPEG4/ISO/AVC
Duration : 23 min 57 s
Bit rate mode : Variable
Bit rate : 3 048 kb/s
Maximum bit rate : 4 740 kb/s
Width : 1 920 pixels
Height : 1 080 pixels
Display aspect ratio : 16:9
Frame rate mode : Constant
Frame rate : 23.976 (24000/1001) FPS
Color space : YUV
Chroma subsampling : 4:2:0
Bit depth : 8 bits
Scan type : Progressive
Bits/(Pixel*Frame) : 0.061
Stream size : 522 MiB (79%)
Default : Yes
Forced : No

Audio #1
ID : 2
Format : AC-3
Format/Info : Audio Coding 3
Codec ID : A_AC3
Duration : 23 min 58 s
Bit rate mode : Constant
Bit rate : 384 kb/s
Channel(s) : 6 channels
Channel positions : Front: L C R, Side: L R, LFE
Sampling rate : 48.0 kHz
Frame rate : 31.250 FPS (1536 SPF)
Bit depth : 16 bits
Compression mode : Lossy
Stream size : 65.8 MiB (10%)
Title : TVShows
Language : Russian
Service kind : Complete Main
Default : Yes
Forced : Yes

Audio #2
ID : 3
Format : AC-3
Format/Info : Audio Coding 3
Codec ID : A_AC3
Duration : 23 min 58 s
Bit rate mode : Constant
Bit rate : 384 kb/s
Channel(s) : 6 channels
Channel positions : Front: L C R, Side: L R, LFE
Sampling rate : 48.0 kHz
Frame rate : 31.250 FPS (1536 SPF)
Bit depth : 16 bits
Compression mode : Lossy
Stream size : 65.8 MiB (10%)
Title : Original
Language : English
Service kind : Complete Main
Default : No
Forced : No

Text
ID : 4
Format : PGS
Muxing mode : zlib
Codec ID : S_HDMV/PGS
Codec ID/Info : Picture based subtitle format used on BDs/HD-DVDs
Duration : 23 min 13 s
Bit rate : 71.5 kb/s
Count of elements : 784
Stream size : 11.9 MiB (2%)
Title : English
Language : English
Default : No
Forced : No

pb.wtf



Скачать Сплошной отстой! через торрент http://img11.lostpic.net/2018/11/13/93f6e3f205d3508e2a74381aa74dfde3.png Скачать фильм Сплошной отстой! через торрент бесплантно в хорошем качестве Описание: События разворачиваются в маленьком городке в Орегоне образца 1996 года. Ученики одной средней школы объединяются для съёмок ... 10 10 2
Торрент: Зарегистрирован [2018-11-22 20:24] · скачан: 13 раз
Статус: √ проверено
Размер: 6.67 GB
Как cкачать? Как скачать Сплошной отстой! через торрент | qTorrent

% Раздел Тема Автор DL S | L
Зарубежные сериалы [ 14.15 GB ] Сплошной отстой! / Everything Sucks! / Сезон: 1 / Серии: 1-10 из 10 [2018 WEBRip 720p] MVO [Jaskier] bober100 Скачать
1 | 0
Зарубежные сериалы [ 2.94 GB ] Сплошной отстой! / Everything Sucks! / Сезон: 1 / Серии: 1-10 из 10 [2018 WEBRip] MVO [Jaskier] bober100 Скачать
1 | 0
Зарубежные сериалы [ 2.93 GB ] Сплошной отстой! / Everything Sucks! / Сезон: 1 / Серии: 1-10 из 10 [2018 WEB-DLRip] MVO [NewStudio] bober100 Скачать
1 | 0

28-11-2019 20:33  

Отключить всю рекламу на сайте

    Дорогой пользователь! Огромная просьба, поблагодарите релизера, оцените раздачу и оставьте свои комментарий, если Вы скачали Сплошной отстой! через торрент бесплатно! Внесите свою лепту в развитие PiratBit!
    Комментировать посты могут только пользователи прошедшие не сложную регистрацию
    Показать сообщения:    

    Сплошной отстой! через торрент
    Скачать бесплатно Сплошной отстой!
    Сплошной отстой! скачать торрент
    Сплошной отстой! смотреть онлайн
    Cкачать фильм Сплошной отстой! бесплатно
    Сплошной отстой! скачать торрент в хорошем качестве
    Сплошной отстой! смотреть онлайн бесплатно в хорошем качестве


    Вы не можете начинать темы
    Вы не можете отвечать на сообщения
    Вы не можете редактировать свои сообщения
    Вы не можете удалять свои сообщения
    Вы не можете голосовать в опросах
    Вы не можете прикреплять файлы к сообщениям
    Вы можете скачивать файлы