Ссылка на приватное зеркало нашего сайта всего за 1$. Внимание количество ограничено!!!

2 сезон

iTunes

1 сезон

1

iTunes

iTunes

iTunes

1 сезон

RePack

30

ИГРА 18+

pack

ВАЖНО

!!Акция!!

Alien_RageХит недели

RePack

MK11
pack

Забери бонус

RePack

jed

!!Акция!!

Alien_Rage

RePack

fifa19

RePack

Assassins Creed: Odyssey

RePack

NEED FOR SPEED™ PAYBACK

4 сезон

9 сезон

Бесстыжие 9 сезон

Все сериалы

все сериалы на PB.wtf

RePack

FAR CRY 5
  

Пёс / Сезон: 4 / Серии: 1-22 из 22 (Николай Каптан, Игорь Забара) [2018, Детектив, DVB] pb.wtf

Пёс через торрент pb.wtf

Размер: 26.32 GB | Добавлен: 1 год 9 мес. назад | Торрент скачан:35 раз
Скачать  

22-11-2018 21:37 Пёс Скачать торрент  

ПёсГод выпуска: 2018
Страна: Украина
Жанр: Детектив
Продолжительность: ~ 00:52:00
Перевод: Не требуется
Субтитры: Украинские

Режиссер: Николай Каптан, Игорь Забара



В ролях:

Андрей Саминин, Никита Панфилов, Михаил Жонин, Ольга Олексий, Денис Роднянский, Светлана Зельбет, Ольга Морозова, Тарас Мельничук

Описание:

Макс – алкоголик. Когда-то лучший сыщик в городе, Макс потерял все – работу, друзей, жену. У него остался единственный друг – Пес. После серии погонь, драк и перестрелок, Пес и Макс раскрыли тайну загадочного убийства. Макс с Псом снова стали детективами. Теперь каждый день начинается с того, что Пес и Макс пытаются выяснить, кто совершил преступление... И выяснить – кто из них лучший сыщик в городе!

Качество: DVB
Формат: TS

Видео: MPEG-2, ~ 2904 Кбит/сек, 720x576@1024х576, 25,000 кадр/сек
Аудио: МР2, 2 ch, 192 Кбит/с
скриншот  скриншот  скриншот  скриншот  

Общее
Идентификатор : 1 (0x1)
Полное имя : E:\Пес 4.(2018).DVB.Files-x\01.Пес.s04.(2018).DVB.by.Серый1779.Files-x.ts
Формат : MPEG-TS
Размер файла : 1,15 Гбайт
Продолжительность : 51 м. 27 с.
Режим общего битрейта : Переменный
Общий поток : 3191 Кбит/сек

Видео
Идентификатор : 1155 (0x483)
Идентификатор меню : 5 (0x5)
Формат : MPEG Video
Версия формата : Version 2
Профиль формата : Main@Main
Настройки формата : CustomMatrix / BVOP
Параметр BVOP формата : Да
Параметр матрицы формата : Выборочная
Параметр GOP формата : M=3, N=24
Структура изображения : Frame
Идентификатор кодека : 2
Продолжительность : 51 м. 27 с.
Вид битрейта : Переменный
Битрейт : 2904 Кбит/сек
Максимальный битрейт : 15,0 Мбит/сек
Ширина : 720 пикселей
Высота : 576 пикселей
Соотношение сторон : 16:9
Частота кадров : 25,000 кадров/сек
Стандарт вещания : PAL
Цветовое пространство : YUV
Субдискретизация насыщенности : 4:2:0
Битовая глубина : 8 бит
Тип развёртки : Чересстрочная
Порядок развёртки : Верхнее поле первое
Метод сжатия : С потерями
Бит/(Пиксели*Кадры) : 0.280
Временной код первого кадра : 00:00:00:00
Оригинал временного кода : Group of pictures header
GOP, открыто/закрыто : Открыто
GOP, открыто/закрыто на первом кадре : Закрыто
Размер потока : 1,04 Гбайт (91%)

Аудио
Идентификатор : 1156 (0x484)
Идентификатор меню : 5 (0x5)
Формат : MPEG Audio
Версия формата : Version 1
Профиль формата : Layer 2
Идентификатор кодека : 3
Продолжительность : 51 м. 27 с.
Вид битрейта : Постоянный
Битрейт : 128 Кбит/сек
Каналы : 2 канала
Частота : 48,0 КГц
Частота кадров : 41,667 кадра/сек (1152 SPF)
Метод сжатия : С потерями
Размер потока : 47,1 Мбайт (4%)
Язык : English

pb.wtf



Скачать Пёс через торрент https://i93.fastpic.ru/big/2018/1022/1d/fcadc43390ba1a17e3bf0e648efce91d.jpg Скачать фильм Пёс через торрент бесплантно в хорошем качестве Описание: Макс – алкоголик. Когда-то лучший сыщик в городе, Макс потерял все – работу, друзей, жену. У него остался единственный друг – ... 10 10 6
Info! Золотая раздача, скачанное не засчитывается.
Торрент: Зарегистрирован [2018-12-31 19:26] · скачан: 35 раз
Статус: √ проверено
Размер: 26.32 GB
Как cкачать? Как скачать Пёс через торрент | qTorrent

% Раздел Тема Автор DL S | L
Наши сериалы [ 14.04 GB ] Пёс / Сезон: 4 / Серии: 1-22 из 22 [2018 WEB-DLRip-AVC] Sanekzade1989 Скачать
1 | 0
Наши сериалы [ 14.95 GB ] Пёс / Сезон: 4 / Серии: 1-22 из 22 [2018 WEB-DLRip] bober100 Скачать
1 | 0

28-11-2019 20:33  

Отключить всю рекламу на сайте

    Дорогой пользователь! Огромная просьба, поблагодарите релизера, оцените раздачу и оставьте свои комментарий, если Вы скачали Пёс через торрент бесплатно! Внесите свою лепту в развитие PiratBit!
    Комментировать посты могут только пользователи прошедшие не сложную регистрацию
    Показать сообщения:    

    Пёс через торрент
    Скачать бесплатно Пёс
    Пёс скачать торрент
    Пёс смотреть онлайн
    Cкачать фильм Пёс бесплатно
    Пёс скачать торрент в хорошем качестве
    Пёс смотреть онлайн бесплатно в хорошем качестве


    Вы не можете начинать темы
    Вы не можете отвечать на сообщения
    Вы не можете редактировать свои сообщения
    Вы не можете удалять свои сообщения
    Вы не можете голосовать в опросах
    Вы не можете прикреплять файлы к сообщениям
    Вы можете скачивать файлы