Доктор Стрэндж

Лицензия

Добыча

Дубляж

Уэнсдэй

1 сезон

Тор

Дубляж

В эфире

Дубляж

Там, где раки поют

MVO

Властелин колец

1 сезон

Deluxe

pack

Рекомендуем

30

Пиратка

ВАЖНО

ВАЖНО

Ghostwire

Пиратка

jed

RePack

nioh2

RePack

RDR2

RePack

NEED FOR SPEED™ PAYBACK

RePack

скачать торрент

Кинопоиск HD

Острые козырьки 6 сезон

6 сезон

FAR CRY 6

RePack

скачать торрент

Лицензия

скачать торрент

MVO

1

1 сезон

скачать торрент

1 сезон

скачать торрент

Лицензия

  

Ментовские войны. Харьков / Серии: 1-40 из 40 (Валерий Рожко, Тарас Рыбальченко) [2018, Детектив, криминал, боевик, триллер, DVB]

Ментовские войны. Харьков через торрент pb.wtf

Размер: 35.01 GB | Добавлен: 4 года назад | Торрент скачан:2 раза
Смотреть онлайн | Скачать   

23-11-2018 02:00 Ментовские войны. Харьков Скачать торрент  

Ментовские войны. Харьков Год выпуска: 2018
Страна: Украина
Жанр: Детектив, криминал, боевик, триллер
Продолжительность: 00:46:00
Перевод: Не требуется
Субтитры: Украинские

Режиссер: Валерий Рожко, Тарас Рыбальченко

В ролях:

Артем Позняк, Богдан Юсипчук, Сергей Листунов, Танита Малкова, Анастасия Рула

Описание:

Это продолжение культовой саги про отважных, харизматичных и справедливых сотрудников уголовного розыска. Троица верных своему делу друзей – руководитель уголовного розыска Харьковского ГУВД Андрей Гордиенко, Богдан Харченко и Дмитрий Воронов каждый день принимают сложные вызовы криминального мира: запутанные убийства, вооруженные нападения, подлость в рядах силовиков и смертельно опасные задания. С холодным умом и отвагой они всегда пытаются быть объективными, но когда мишенью бандитов становятся близкие люди, героям все труднее избегать ошибок…Особенно тяжело им будут даваться дела, в которых замешаны «оборотни в погонах» - сотрудники структур, которые должны защищать граждан, а не наоборот. Новый сезон должен понравится вам еще больше за два предыдущих проекта, действия которых разворачивались в Одессе и Киеве. К тому же, вы сможете испытать свои силы в решении запутанных дел – вдруг, вы поймете, кто именно является преступником, раньше, чем главные герои сериала?

Качество: DVB
Формат: TS

Видео: MPEG-2, ~ 2640 Кбит/с, [email protected]х576, 25,000 кадр/с
Аудио: МР2, 2 ch, 192 Кбит/с
скриншот  скриншот  скриншот  скриншот  

Общее
Идентификатор : 1 (0x1)
Полное имя : E:\Ментовские войны. Харьков.(2018).DVB.Files-x\01.Ментовские войны. Харьков.(2018).DVB.by.Серый1779.Files-x.ts
Формат : MPEG-TS
Размер файла : 887 Мбайт
Продолжительность : 45 м. 39 с.
Режим общего битрейта : Переменный
Общий поток : 2715 Кбит/сек

Видео
Идентификатор : 1615 (0x64F)
Идентификатор меню : 6120 (0x17E8)
Формат : MPEG Video
Версия формата : Version 2
Профиль формата : [email protected]
Настройки формата : CustomMatrix / BVOP
Параметр BVOP формата : Да
Параметр матрицы формата : Выборочная
Параметр GOP формата : Variable
Структура изображения : Frame
Идентификатор кодека : 2
Продолжительность : 45 м. 39 с.
Вид битрейта : Переменный
Битрейт : 2387 Кбит/сек
Максимальный битрейт : 15,0 Мбит/сек
Ширина : 720 пикселей
Высота : 576 пикселей
Соотношение сторон : 16:9
Описание активного формата : Full frame 16:9 image
Частота кадров : 25,000 кадров/сек
Стандарт вещания : PAL
Цветовое пространство : YUV
Субдискретизация насыщенности : 4:2:0
Битовая глубина : 8 бит
Тип развёртки : Чересстрочная
Порядок развёртки : Верхнее поле первое
Метод сжатия : С потерями
Бит/(Пиксели*Кадры) : 0.230
Временной код первого кадра : 00:00:00:00
Оригинал временного кода : Group of pictures header
GOP, открыто/закрыто : Открыто
GOP, открыто/закрыто на первом кадре : Закрыто
Размер потока : 779 Мбайт (88%)

Аудио
Идентификатор : 1616 (0x650)
Идентификатор меню : 6120 (0x17E8)
Формат : MPEG Audio
Версия формата : Version 1
Профиль формата : Layer 2
Идентификатор кодека : 3
Продолжительность : 45 м. 39 с.
Вид битрейта : Постоянный
Битрейт : 192 Кбит/сек
Каналы : 2 канала
Частота : 48,0 КГц
Частота кадров : 41,667 кадра/сек (1152 SPF)
Метод сжатия : С потерями
Задержка видео : 6 мс.
Размер потока : 62,7 Мбайт (7%)
Язык : Ukrainian

Внимание! Раздача ведётся путём добавления новых серий; при каждом добавлении создfётся новый торрент. Чтобы начать докачку новой серии, пользователям необходимо сделать следующее: (1) остановить скачивание, (2) удалить старый торрент у себя из клиента (старые серии удалять не надо), (3) скачать новый торрент и запустить его у себя в клиенте вместо старого, при этом указать клиенту путь в старую папку куда и должно происходить скачивание новых серий.

Ваш клиент при этом должен произвести хеширование (проверку) старой папки (если не производит сам - помогите ему сделать это), и будет докачивать только те серии которых у вас ещё нет. Старые серии при этом не удаляются, а продолжают раздаваться!

Eсли вы уже удалили старые серии, то предотвратить повторную закачку старых серий можно, отжав галочку в соответсвующих местах при запуске нового торрента.



Скачать Ментовские войны. Харьков через торрент https://i89.fastpic.ru/big/2018/0925/67/d0b765af18c3c52e3ecb0026f6556567.jpg Скачать, смотреть онлайн Ментовские войны. Харьков бесплантно в хорошем качестве Описание: Это продолжение культовой саги про отважных, харизматичных и справедливых сотрудников уголовного розыска. Троица верных своему ... 10 10 3
Info! Золотая раздача, скачанное не засчитывается.
Торрент: Зарегистрирован [2018-11-29 19:57] · скачан: 2 раз
Статус: √ проверено
Размер: 35.01 GB
Как cкачать? Как скачать Ментовские войны. Харьков через торрент | UTorrent

% Раздел Тема Автор DL S | L
Наши сериалы [ 17.78 GB ] Ментовские войны. Харьков / Сезон: 2 / Серии: 1-32 из 32 | | WEBRip killermax2013 Скачать
1 | 0
Наши сериалы [ 21.76 GB ] Ментовские войны. Харьков / Серии: 1-40 из 40 | | SATRip-AVC bober100 Скачать
1 | 0
Наши сериалы [ 68.95 GB ] Ментовские войны. Харьков / Серии: 1-40 из 40 | | 1080p bober100 Скачать
1 | 0
Наши сериалы [ 23.56 GB ] Ментовские войны. Харьков / Серии: 1-40 из 40 | | DLRip-AVC bober100 Скачать
1 | 0

28-11-2019 20:33  


Отключить вcю реклaмy на сайте, в т.ч. и в плеере онлайн просмотра!

    Дорогой пользователь! Огромная просьба, поблагодарите релизера, оцените раздачу и оставьте свои комментарий, если Вы скачали Ментовские войны. Харьков через торрент бесплатно!!
    Комментировать посты могут только пользователи прошедшие не сложную регистрацию
    Показать сообщения:    


    Ментовские войны. Харьков через торрент
    Скачать бесплатно Ментовские войны. Харьков
    Ментовские войны. Харьков скачать торрент
    Ментовские войны. Харьков смотреть онлайн
    Cкачать фильм Ментовские войны. Харьков бесплатно
    Ментовские войны. Харьков скачать торрент в хорошем качестве
    Ментовские войны. Харьков смотреть онлайн бесплатно в хорошем качестве
    Вы не можете начинать темы
    Вы не можете отвечать на сообщения
    Вы не можете редактировать свои сообщения
    Вы не можете удалять свои сообщения
    Вы не можете голосовать в опросах
    Вы не можете прикреплять файлы к сообщениям
    Вы можете скачивать файлы
    Ментовские войны. Харьков / Серии: 1-40 из 40 [2018, Детектив, криминал, боевик, триллер, DVB] смотреть онлайн, скачать торрент picoco.icu