Ссылка на приватное зеркало всего за 1$. Внимание количество ограничено!!!

OK

1+1

iTunes

мы

OK

1

WEB-DLRip

Джокер

Пифагор

Ведьмак / The Witcher сериал

Лицензия

ПШазам

ОК

Оно 2

iTunes

30
pack

Вам бонус

ВАЖНО

!!Акция!!

Alien_RageХит недели

RePack

Resident Evil 21

ИГРА 18+

pack

RePack

jed

RePack

fifa19

RePack

Assassins Creed: Odyssey

RePack

NEED FOR SPEED™ PAYBACK

4 сезон

9 сезон

Бесстыжие 9 сезон

Все сериалы

все сериалы на PB.wtf

RePack

FAR CRY 5
  

Ночи с фурри / Furry Nights (Дж. Захари Смит) [2016, Ужасы, WEB-DL 720p] MVO [КОЛОБОК] pb.wtf

Ночи с фурри через торрент pb.wtf

Размер: 2.61 GB | Добавлен: 1 год 2 мес. назад | Торрент скачан:13 раз
Скачать  

23-11-2018 06:57 Ночи с фурри Скачать торрент  

Ночи с фурри / Furry NightsГод выпуска: 2016
Страна: США
Жанр: Ужасы
Продолжительность: 01:12:32
Перевод: Любительский (многоголосый) | КОЛОБОК
Субтитры: отсутствуют

Режиссер: Дж. Захари Смит

rating

В ролях:

Кейт Доусетт, Амелия Хакклерад, Эллисон Джой МакДэниел

Описание:

Группа подростков случайно наткнулась в лесу на сборище фурри. И всё бы обошлось, если бы один из этих подростков не застрелил одного из этих фурри, перепутав его с настоящим медведем. Теперь люди в звериных костюмах озверели по-настоящему... Переживут ли наши герои эти ночи с фурри?

Качество: WEB-DL 720p
Формат: MKV

Видео: h.264, 4 764 Кбит/с, 1280x640
Аудио#1: Русский, (AC3, 2 ch, 384 Кбит/с)
скриншот  скриншот  скриншот  

Общее
Уникальный идентификатор : 188098471713291439677959219107108087313 (0x8D8272AAA9B8C316BBE37B6C77C5E611)
Полное имя : D:\Furry.Nights.2016.Pk.WEB-DL.72Op.mkv
Формат : Matroska
Версия формата : Version 2
Размер файла : 2,61 Гбайт
Продолжительность : 1 ч. 12 м.
Режим общего битрейта : Переменный
Общий поток : 5150 Кбит/сек
Дата кодирования : UTC 2018-11-19 14:43:30
Программа кодирования : mkvmerge v8.3.0 ('Over the Horizon') 64bit
Библиотека кодирования : libebml v1.3.1 + libmatroska v1.4.2

Видео
Идентификатор : 1
Формат : AVC
Формат/Информация : Advanced Video Codec
Профиль формата : High@L4.1
Параметр CABAC формата : Да
Параметр RefFrames формата : 4 кадра
Идентификатор кодека : V_MPEG4/ISO/AVC
Продолжительность : 1 ч. 12 м.
Вид битрейта : Переменный
Битрейт : 4764 Кбит/сек
Максимальный битрейт : 5500 Кбит/сек
Ширина : 1280 пикселей
Высота : 640 пикселей
Соотношение сторон : 2,000
Режим частоты кадров : Постоянный
Частота кадров : 23,976 (24000/1001) кадра/сек
Стандарт вещания : Component
Цветовое пространство : YUV
Субдискретизация насыщенности : 4:2:0
Битовая глубина : 8 бит
Тип развёртки : Прогрессивная
Бит/(Пиксели*Кадры) : 0.237
Размер потока : 2,36 Гбайт (91%)
Default : Да
Forced : Нет
Цветовой диапазон : Limited
Основные цвета : BT.709
Характеристики трансфера : BT.709
Коэффициенты матрицы : BT.709

Аудио
Идентификатор : 2
Формат : AC-3
Формат/Информация : Audio Coding 3
Расширение режима : CM (complete main)
Параметр Endianness формата : Big
Идентификатор кодека : A_AC3
Продолжительность : 1 ч. 12 м.
Вид битрейта : Постоянный
Битрейт : 384 Кбит/сек
Каналы : 2 канала
Расположение каналов : Front: L R
Частота : 48,0 КГц
Частота кадров : 31,250 кадров/сек (1536 spf)
Метод сжатия : С потерями
Размер потока : 199 Мбайт (7%)
Default : Да
Forced : Нет

pb.wtf



Скачать Ночи с фурри через торрент https://i108.fastpic.ru/big/2018/1123/77/59f36a92fcd70d816cdfba1201b12177.jpg Скачать фильм Ночи с фурри через торрент бесплантно в хорошем качестве Описание: Группа подростков случайно наткнулась в лесу на сборище фурри. И всё бы обошлось, если бы один из этих подростков не застрелил ... 10 10 3
Торрент: Зарегистрирован [2018-11-23 06:57] · скачан: 13 раз
Статус: T временная
Размер: 2.61 GB
Как cкачать? Как скачать Ночи с фурри через торрент | qTorrent

% Раздел Тема Автор DL S | L
T Фильмы (мультфильмы) cо спонсором показа (Новинки AVI/MKV) [ 1.37 GB ] Ночи с фурри / Furry Nights [2016 WEB-DLRip] MVO [КОЛОБОК] bober100 Скачать
1 | 0

28-11-2019 20:33  

Отключить всю рекламу на сайте

23-11-2018 07:37 Ночи с фурри Скачать торрент  

5,7, что не верится родственники, друзья и снимавшиеся оценили, а что так печально, ставили бы 9)pb.wtf



    Дорогой пользователь! Огромная просьба, поблагодарите релизера, оцените раздачу и оставьте свои комментарий, если Вы скачали Ночи с фурри через торрент бесплатно! Внесите свою лепту в развитие PiratBit!
    Комментировать посты могут только пользователи прошедшие не сложную регистрацию
    Показать сообщения:    

    Ночи с фурри через торрент
    Скачать бесплатно Ночи с фурри
    Ночи с фурри скачать торрент
    Ночи с фурри смотреть онлайн
    Cкачать фильм Ночи с фурри бесплатно
    Ночи с фурри скачать торрент в хорошем качестве
    Ночи с фурри смотреть онлайн бесплатно в хорошем качестве


    Вы не можете начинать темы
    Вы не можете отвечать на сообщения
    Вы не можете редактировать свои сообщения
    Вы не можете удалять свои сообщения
    Вы не можете голосовать в опросах
    Вы не можете прикреплять файлы к сообщениям
    Вы можете скачивать файлы