Ссылка на приватное зеркало нашего сайта всего за 1$. Внимание количество ограничено!!!

2 сезон

iTunes

1 сезон

1

iTunes

iTunes

iTunes

1 сезон

RePack

30

ИГРА 18+

pack

ВАЖНО

!!Акция!!

Alien_RageХит недели

RePack

MK11
pack

Забери бонус

RePack

jed

!!Акция!!

Alien_Rage

RePack

fifa19

RePack

Assassins Creed: Odyssey

RePack

NEED FOR SPEED™ PAYBACK

4 сезон

9 сезон

Бесстыжие 9 сезон

Все сериалы

все сериалы на PB.wtf

RePack

FAR CRY 5
  

Мажор / Сезоны: 1-3 / Серии: 1-40 из 40 (Игорь Твердохлебов ) [2014-2018, Криминал, драма, WEB-DL 720p] pb.wtf

Мажор через торрент pb.wtf

Раздают: 2 [ 0 KB/s ]
Размер: 45.43 GB | Добавлен: 1 год 11 мес. назад | Торрент скачан:146 раз
Скачать  

23-11-2018 07:30 Мажор Скачать торрент  

Мажор
Год выпуска: 2014-2018
Страна: Россия
Жанр: Криминал, драма
Продолжительность: ~ 00:52:00
Субтитры: отсутствуют

Режиссер: Игорь Твердохлебов

rating

В ролях:

Павел Прилучный, Карина Разумовская, Дмитрий Шевченко, Александр Обласов, Дмитрий Лысенков, Игорь Черневич, Михаил Елисеев, Анна Цуканова-Котт, Дана Абызова, Игорь Жижикин, Анна Вартанян, Михаил Шеломенцев, Даниил Кокин, Игорь Грабузов, Антон Чернов, Владимир Селезнёв (II), Игорь Ключников

Описание:

Игорь Соколовский давно перестал быть тем Мажором, для которого служба в полиции – вынужденная «ссылка». Давняя смерть матери и недавнее убийство отца – два события, определившие его дальнейшую жизнь – могут быть раскрыты во многом благодаря этой службе. Мажор растёт как профессионал, ежедневно работая над раскрытием различных преступлений, но расследование главной драмы его жизни ставит перед ним новые задачи. Чтобы отомстить за смерть отца, он в совершенстве овладел бизнес-стратегиями, чтобы найти и наказать убийцу матери, ему нужно освоить нечто совершенно новое. И самое сложное при этом – остаться в рамках закона. В поисках преступника Мажор окажется у черты, но останутся ли у него законные средства, чтобы наказать убийцу?

Качество: WEB-DL 720p
Формат: MKV

Видео: MPEG-4 AVC, ~ 2900 Кбит/с, 1280x720
Аудио: AC3, 2 ch, 192 Кбит/с
скриншот   скриншот   скриншот   скриншот  

Общее
Уникальный идентификатор : 233105608689300755063200665304913939924 (0xAF5E81D7B94A2B509239D034F1A00DD4)
Полное имя : D:\Мажор WEB-DL 720p\Mazhor.2014.WEB-DL(720p)\Mazhor.01.2014.WEB-DL(720p).mkv
Формат : Matroska
Версия формата : Version 4 / Version 2
Размер файла : 1,14 Гбайт
Продолжительность : 54 м. 18 с.
Общий поток : 3000 Кбит/сек
Дата кодирования : UTC 2014-12-17 09:43:54
Программа кодирования : mkvmerge v7.4.0 ('Circles') 64bit built on Dec 12 2014 12:19:56
Библиотека кодирования : libebml v1.3.0 + libmatroska v1.4.1

Видео
Идентификатор : 1
Формат : AVC
Формат/Информация : Advanced Video Codec
Профиль формата : High@L4
Параметр CABAC формата : Да
Параметр RefFrames формата : 8 кадров
Идентификатор кодека : V_MPEG4/ISO/AVC
Продолжительность : 54 м. 18 с.
Битрейт : 2806 Кбит/сек
Ширина : 1280 пикселей
Высота : 720 пикселей
Соотношение сторон : 16:9
Режим частоты кадров : Постоянный
Частота кадров : 25,000 кадров/сек
Цветовое пространство : YUV
Субдискретизация насыщенности : 4:2:0
Битовая глубина : 8 бит
Тип развёртки : Прогрессивная
Бит/(Пиксели*Кадры) : 0.122
Размер потока : 1,06 Гбайт (94%)
Язык : Russian
Default : Да
Forced : Нет

Аудио
Идентификатор : 2
Формат : AC-3
Формат/Информация : Audio Coding 3
Расширение режима : CM (complete main)
Параметр Endianness формата : Big
Идентификатор кодека : A_AC3
Продолжительность : 54 м. 18 с.
Вид битрейта : Постоянный
Битрейт : 192 Кбит/сек
Каналы : 2 канала
Расположение каналов : Front: L R
Частота : 44,1 КГц
Частота кадров : 28,711 кадров/сек (1536 spf)
Метод сжатия : С потерями
Задержка видео : 50 мс.
Размер потока : 74,6 Мбайт (6%)
Язык : Russian
Default : Да
Forced : Нет

pb.wtf



Скачать Мажор через торрент http://lostpic.net/images/2016/11/14/b5ad043a8b9874596203485feccad966.jpg Скачать фильм Мажор через торрент бесплантно в хорошем качестве Описание: Игорь Соколовский давно перестал быть тем Мажором, для которого служба в полиции – вынужденная «ссылка». Давняя смерть матери и ... 10 10 8
Info! Золотая раздача, скачанное не засчитывается.
Торрент: Зарегистрирован [2018-11-23 07:30] · скачан: 146 раз
Статус: √ проверено
Размер: 45.43 GB
Как cкачать? Как скачать Мажор через торрент | qTorrent

% Раздел Тема Автор DL S | L
Наши сериалы [ 25.01 GB ] Мажор / Сезоны: 1-3 / Серии: 1-40 из 40 [2014-2018 WEB-DLRip] bober100 Скачать
2 | 0
Наши сериалы [ 68.37 GB ] Мажор / Сезоны: 1-3 / Серии: 1-40 из 40 [2014-2018 WEB-DL 1080p] bober100 Скачать
1 | 0

28-11-2019 20:33  

Отключить всю рекламу на сайте

    Дорогой пользователь! Огромная просьба, поблагодарите релизера, оцените раздачу и оставьте свои комментарий, если Вы скачали Мажор через торрент бесплатно! Внесите свою лепту в развитие PiratBit!
    Комментировать посты могут только пользователи прошедшие не сложную регистрацию
    Показать сообщения:    

    Мажор через торрент
    Скачать бесплатно Мажор
    Мажор скачать торрент
    Мажор смотреть онлайн
    Cкачать фильм Мажор бесплатно
    Мажор скачать торрент в хорошем качестве
    Мажор смотреть онлайн бесплатно в хорошем качестве


    Вы не можете начинать темы
    Вы не можете отвечать на сообщения
    Вы не можете редактировать свои сообщения
    Вы не можете удалять свои сообщения
    Вы не можете голосовать в опросах
    Вы не можете прикреплять файлы к сообщениям
    Вы можете скачивать файлы