Ссылка на приватное зеркало нашего сайта всего за 1$. Внимание количество ограничено!!!

2 сезон

iTunes

1 сезон

1

iTunes

iTunes

iTunes

1 сезон

RePack

30

ИГРА 18+

pack

ВАЖНО

!!Акция!!

Alien_RageХит недели

RePack

MK11
pack

Забери бонус

RePack

jed

!!Акция!!

Alien_Rage

RePack

fifa19

RePack

Assassins Creed: Odyssey

RePack

NEED FOR SPEED™ PAYBACK

4 сезон

9 сезон

Бесстыжие 9 сезон

Все сериалы

все сериалы на PB.wtf

RePack

FAR CRY 5
  

Баня (Анатолий Каранович, Сергей Юткевич) [1962, мультфильм, SATRip от AVP Studio] pb.wtf

Баня через торрент pb.wtf

Размер: 373 MB | Добавлен: 1 год 11 мес. назад | Торрент скачан:8 раз
Скачать  

23-11-2018 08:54 Баня Скачать торрент  

Баня
Страна: СССР
Производство: Союзмультфильм

Жанр: мультфильм
Год выпуска: 1962
Продолжительность: 00:50:41

Перевод: Не требуется
Cубтитры: нет
Оригинальная аудиодорожка: русский

Режиссер: Анатолий Каранович, Сергей Юткевич

В ролях:
Аркадий Райкин, Екатерина Райкина, Артур Эйзен...
Об актёрах подробней

Описание:
Экранизация одноименной пьесы Вл.Маяковского.
Уже очень давно и безуспешно пытаются пробиться к главному начальнику по управлению и согласованию - главначпупсу товарищу Победоносикову - изобретатели машины времени Чудаков и Велосипедкин. Их гоняют вперед и назад, направо и налево, а когда они оказываются у дверей кабинета Победоносикова, им преграждает путь фигура секретаря главначпупса Оптимистенко

Исходник: DVB
Качество видео: SATRip
Формат видео: AVI

Видео: 704x320 (2,2:1), 25,000 кадров/сек, XviD ~ 827 kbps avg, 0.147 bit/pixel
Аудио: 48 kHz, Dolby Digital AC3 2.0, 192 kbps

Раздача от:
Общее
Полное имя : Banya.1962.SATRip_[New-team]_by_AVP_Studio.avi
Формат : AVI
Формат/Информация : Audio Video Interleave
Размер файла : 373 Мбайт
Продолжительность : 50 м. 41 с.
Общий поток : 1028 Кбит/сек
Программа кодирования : VirtualDubMod 1.5.10.3 | www.virtualdub-fr.org || (build 2550/release)
Библиотека кодирования : VirtualDubMod build 2550/release

Видео
Идентификатор : 0
Формат : MPEG-4 Visual
Профиль формата : Advanced Simple@L5
Настройки формата : BVOP1 / Custom Matrix
Параметр BVOP формата : 1
Параметр QPel формата : Нет
Параметр GMC формата : Без точки перехода
Параметр матрицы формата : Выборочная
Идентификатор кодека : XVID
Идентификатор кодека/Подсказка : XviD
Продолжительность : 50 м. 41 с.
Битрейт : 827 Кбит/сек
Ширина : 704 пикселя
Высота : 320 пикселей
Соотношение сторон : 2,2:1
Частота кадров : 25,000 кадров/сек
Цветовое пространство : YUV
Субдискретизация насыщенности : 4:2:0
Битовая глубина : 8 бит
Тип развёртки : Прогрессивная
Метод сжатия : С потерями
Бит/(Пиксели*Кадры) : 0.147
Размер потока : 300 Мбайт (80%)
Библиотека кодирования : XviD 73

Аудио
Идентификатор : 1
Формат : AC-3
Формат/Информация : Audio Coding 3
Коммерческое название : Dolby Digital
Идентификатор кодека : 2000
Продолжительность : 50 м. 40 с.
Вид битрейта : Постоянный
Битрейт : 192 Кбит/сек
Каналы : 2 канала
Channel layout : L R
Частота : 48,0 КГц
Частота кадров : 31,250 кадров/сек (1536 SPF)
Битовая глубина : 16 бит
Метод сжатия : С потерями
Размер потока : 69,6 Мбайт (19%)
Выравнивание : Разделение по промежуткам
Продолжительность промежутка : 40 мс. (1,00 видеокадр)
Время предзагрузки промежутка : 500 мс
pb.wtf



Скачать Баня через торрент http://picplus.ru/img/1811/23/5dce2fa4.png Скачать фильм Баня через торрент бесплантно в хорошем качестве Описание:Экранизация одноименной пьесы Вл.Маяковского.Уже очень давно и безуспешно пытаются пробиться к главному начальнику по управлению и ... 10 10 1
Info! Золотая раздача, скачанное не засчитывается.
Торрент: Зарегистрирован [2018-11-23 08:54] · скачан: 8 раз
Статус: √ проверено
Размер: 373 MB
Как cкачать? Как скачать Баня через торрент | qTorrent

% Раздел Тема Автор DL S | L
Фантастика [ 525 MB ] Дмитрий Блинов - Вселенная Метро 2033. Аркаим [Банных Александр 2020 128 kbps MP3] bober100 Скачать
2 | 0
Концерты [ 3.95 GB ] Аль Бано и Ромина Пауэр - Концерт Felicita [2018 POP HDTVRip-HEVC 1080p] Скорпион1976 Скачать
1 | 0
Наши мультфильмы [ 745 MB ] Баня [1962 мультфильм SATRip-AVC от AVP Studio] AVP Studio Скачать
1 | 0
T Релизы по Парсеру [Игры, Сериалы и Фильмы и другое...] [ 24.66 GB ] Сокровища Анимации: Папай Друпи-сыщик Багз Банни Поросёнок Порки. [1935-1954 Мультфильмы 6 x DVD5] bober100 Скачать
1 | 0
Гонзо [ 1.16 GB ] Баня / Steam [2017 Foreign Fetish Foot Fetish Footjob Big Tits IR Threesome Gonzo DVDRip] Pir@tya2010 Скачать
1 | 0
Фильмы до 2000 г. [ 1.45 GB ] Бананы / Bananas [1971 BDRip] MVO 2xDVO koenig Скачать
1 | 0
Наши фильмы, до 2010 [ 2.84 GB ] Особенности Русской бани 1-2 [1999-2000 эротика DVDRip] killermax2013 Скачать
3 | 0

28-11-2019 20:33  

Отключить всю рекламу на сайте

    Дорогой пользователь! Огромная просьба, поблагодарите релизера, оцените раздачу и оставьте свои комментарий, если Вы скачали Баня через торрент бесплатно! Внесите свою лепту в развитие PiratBit!
    Комментировать посты могут только пользователи прошедшие не сложную регистрацию
    Показать сообщения:    

    Баня через торрент
    Скачать бесплатно Баня
    Баня скачать торрент
    Баня смотреть онлайн
    Cкачать фильм Баня бесплатно
    Баня скачать торрент в хорошем качестве
    Баня смотреть онлайн бесплатно в хорошем качестве


    Вы не можете начинать темы
    Вы не можете отвечать на сообщения
    Вы не можете редактировать свои сообщения
    Вы не можете удалять свои сообщения
    Вы не можете голосовать в опросах
    Вы не можете прикреплять файлы к сообщениям
    Вы можете скачивать файлы