Ссылка на приватное зеркало нашего сайта всего за 1$. Внимание количество ограничено!!!

2 сезон

iTunes

1 сезон

1

2 сезон

2 сезон

iTunes

1 сезон

RePack

30

Ultimate

ВАЖНО

ИГРА 18+

pack

RePack

MK11
pack

Забери бонус

RePack

jed

!!Акция!!

Alien_Rage

RePack

fifa19

RePack

Assassins Creed: Odyssey

RePack

NEED FOR SPEED™ PAYBACK

4 сезон

9 сезон

Бесстыжие 9 сезон

Все сериалы

все сериалы на PB.wtf

RePack

FAR CRY 5
  

Граница / Frontier / Сезон: 3 / Серии 1-6 из 6 (Брэд Пэйтон, Джон Ватчер, Келли Мэкин) [2018, Историческая драма, приключения, WEB-DLRip] DVO [KosharaSerials] pb.wtf

Граница через торрент pb.wtf

Размер: 3.49 GB | Добавлен: 2 года назад | Торрент скачан:37 раз
Скачать  

23-11-2018 11:18 Граница Скачать торрент  


Граница | Frontier

Год выпуска: 2018
Страна: Канада
Жанр: Историческая драма, приключения
Продолжительность: ~ 00:45:00
Перевод: Любительский (двухголосый закадровый) | KosharaSerials

Режиссёр: Брэд Пэйтон, Джон Ватчер, Келли Мэкин

В ролях: Диана Бентли, Бриэнн Хилл, Джейсон Момоа, Джессика Мэттен, Пол Ивэн Уилсон, Майкл Патрик, Уильям Белло, Пол Фауте, Эван Джонигкейт, Кристиан МакКэй, Лайла Портер Фоллоус и др.

Описание: Сериал расскажет о жестокой и кровавой борьбе за богатство и Влacть в торговле пушниной на просторах Северной Америки в XVIII веке. Бизнес приходится вести в очень сложных условиях жестокого противостояния коренных племён и понаехавших на континент европейцев.

rating скриншот  

Качество: WEB-DLRip
Формат: AVI

Видео: XviD, ~ 1500 Кбит/с, 720x360
Аудио: AC3, 2 ch, 192 Кбит/с
скриншот   скриншот   скриншот   скриншот  скриншот  

Общее
Полное имя : E:\Frontier.S03.400p.KosharaSerials\Frontier.S03E01.400p.KosharaSerials.avi
Формат : AVI
Формат/Информация : Audio Video Interleave
Размер файла : 578 Мбайт
Продолжительность : 47 м. 29 с.
Общий поток : 1701 Кбит/сек
Программа кодирования : VirtualDubMod 1.5.10.3 | www.virtualdub-fr.org || (build 2550/release)
Библиотека кодирования : VirtualDubMod build 2550/release

Видео
Идентификатор : 0
Формат : MPEG-4 Visual
Профиль формата : Advanced Simple@L5
Настройки формата : BVOP2
Параметр BVOP формата : 2
Параметр QPel формата : Нет
Параметр GMC формата : Без точки перехода
Параметр матрицы формата : Default (MPEG)
Идентификатор кодека : XVID
Идентификатор кодека/Подсказка : XviD
Продолжительность : 47 м. 29 с.
Битрейт : 1500 Кбит/сек
Ширина : 720 пикселей
Высота : 360 пикселей
Соотношение сторон : 2,000
Частота кадров : 23,976 (24000/1001) кадра/сек
Цветовое пространство : YUV
Субдискретизация насыщенности : 4:2:0
Битовая глубина : 8 бит
Тип развёртки : Прогрессивная
Метод сжатия : С потерями
Бит/(Пиксели*Кадры) : 0.241
Размер потока : 509 Мбайт (88%)
Библиотека кодирования : XviD 1.2.1 (UTC 2008-12-04)

Аудио
Идентификатор : 1
Формат : AC-3
Формат/Информация : Audio Coding 3
Идентификатор кодека : 2000
Продолжительность : 47 м. 29 с.
Вид битрейта : Постоянный
Битрейт : 192 Кбит/сек
Каналы : 2 канала
Расположение каналов : Front: L R
Частота : 48,0 КГц
Частота кадров : 31,250 кадров/сек (1536 SPF)
Битовая глубина : 16 бит
Метод сжатия : С потерями
Размер потока : 65,2 Мбайт (11%)
Выравнивание : Разделение по промежуткам
Продолжительность промежутка : 42 мс. (1,00 видеокадр)
Время предзагрузки промежутка : 500 мс.
ServiceKind/String : Complete Main

Когда раздача ведётся путём добавления новых серий, при каждом добавлении создётся новый торрент. Чтобы начать докачку новой серии, пользователям необходимо сделать следующее:
(1) остановить скачивание,
(2) удалить старый торрент у себя из клиента (старые серии удалять не надо),
(3) скачать новый торрент и запустить его у себя в клиенте вместо старого, при этом указать клиенту путь в старую папку, куда и должно происходить скачивание новых серий.
Ваш клиент при этом должен произвести хеширование (проверку) старой папки (если не производит сам - помогите ему сделать это), и будет докачивать только те серии, которых у вас ещё нет. Старые серии при этом не удаляются, а продолжают раздаваться!
Eсли вы уже удалили старые серии, то предотвратить повторную закачку старых серий можно, отжав галочку в соответсвующих местах при запуске нового торрента. По возможности, желательно не удалять старые серии как можно дольше, чтобы релизёр не столько продолжал раздавать старые серии, а смог сконцентрироваться на новых.
pb.wtf



Скачать Граница через торрент http://i92.fastpic.ru/big/2017/1020/95/45637dd1aa74ed6d6673967c1368e995.jpg Скачать фильм Граница через торрент бесплантно в хорошем качестве Описание: Сериал расскажет о жестокой и кровавой борьбе за богатство и Влacть в торговле пушниной на просторах Северной Америки в XVIII ... 9 10 3
Торрент: Зарегистрирован [2018-11-23 11:20] · скачан: 37 раз
Статус: √ проверено
Размер: 3.49 GB
Как cкачать? Как скачать Граница через торрент | qTorrent

% Раздел Тема Автор DL S | L
Зарубежные сериалы [ 3.4 GB ] Граница / Frontier / Сезон: 3 / Серии: 1-6 из 6 [2018 исторический WEB-DLRip] MVO [Jaskier] bober100 Скачать
1 | 0
Зарубежные сериалы [ 5.55 GB ] Граница / Frontier / Сезон: 3 / Серии: 1-6 из 6 [2018 исторический WEB-DL 720p] MVO bober100 Скачать
1 | 0
Зарубежные сериалы [ 9.05 GB ] Граница / Frontier / Сезон: 3 / Серии: 1-6 из 6 [2018 исторический WEB-DL 1080p] MVO [Jaskier] bober100 Скачать
1 | 0
Зарубежные сериалы [ 2.22 GB ] Граница / Frontier / Сезон: 3 / Серии 1-6 из 6 [2018 Историческая WEBRip] [MVO] killermax2013 Скачать
1 | 0
Зарубежные сериалы [ 12.15 GB ] Граница / Frontier / Сезон: 3 / Серии 1-6 из 6 [2018 Историческая WEBRip 1080p] [MVO] killermax2013 Скачать
1 | 0
Зарубежные сериалы [ 2.76 GB ] Граница / Frontier / Сезон: 3 / Серии 1-6 из 6 [2018 Историческая WEBRip] [MVO] killermax2013 Скачать
1 | 0
Зарубежные сериалы [ 9.18 GB ] Граница / Frontier / Сезон: 3 / Серии 1-6 из 6 [2018 Историческая WEBRip 1080p] [MVO] killermax2013 Скачать
1 | 0

28-11-2019 20:33  

Отключить всю рекламу на сайте

    Дорогой пользователь! Огромная просьба, поблагодарите релизера, оцените раздачу и оставьте свои комментарий, если Вы скачали Граница через торрент бесплатно! Внесите свою лепту в развитие PiratBit!
    Комментировать посты могут только пользователи прошедшие не сложную регистрацию
    Показать сообщения:    

    Граница через торрент
    Скачать бесплатно Граница
    Граница скачать торрент
    Граница смотреть онлайн
    Cкачать фильм Граница бесплатно
    Граница скачать торрент в хорошем качестве
    Граница смотреть онлайн бесплатно в хорошем качестве


    Вы не можете начинать темы
    Вы не можете отвечать на сообщения
    Вы не можете редактировать свои сообщения
    Вы не можете удалять свои сообщения
    Вы не можете голосовать в опросах
    Вы не можете прикреплять файлы к сообщениям
    Вы можете скачивать файлы